Drishyam.2.2022.720p.AMZN.WEBRip.AAC.H.264-themoviesboss

  • Category Movies
  • Type Bollywood
  • Language Hindi
  • Total size 1.2 GB
  • Uploaded By tmb001
  • Downloads 21224
  • Last checked 3 weeks ago
  • Date uploaded 1 month ago
  • Seeders 249
  • Leechers 44

Drishyam 2

CrimeThrillerDramaMystery

7 years after the case related to Vijay Salgaonkar and his family was closed, a series of unexpected events bring truth to light that threatens to change everything for the Salgaonkars. Can Vijay save his family this time?

Infohash : 9D9869FF793280C40B4DE1BCEA63F215A1855D5F




Drishyam.2.2022.720p.AMZN.WEBRip.AAC.H.264-themoviesboss



Media Info



Format : Matroska
Format version : Version 4
File size : 1.23 GiB
Duration : 2 h 19 min
Overall bit rate : 1 253 kb/s
Encoded date : UTC 2022-12-29 19:00:22
Writing application : mkvmerge v56.1.0 ('My Friend') 32-bit
Writing library : libebml v1.4.2 + libmatroska v1.6.4

Video
ID : 1
Format : AVC
Format/Info : Advanced Video Codec
Format profile : [email protected]
Format settings : CABAC / 5 Ref Frames
Format settings, CABAC : Yes
Format settings, Reference frames : 5 frames
Codec ID : V_MPEG4/ISO/AVC
Duration : 2 h 19 min
Bit rate : 1 187 kb/s
Width : 1 280 pixels
Height : 528 pixels
Display aspect ratio : 2.40:1
Original display aspect ratio : 2.40:1
Frame rate mode : Constant
Frame rate : 24.000 FPS
Color space : YUV
Chroma subsampling : 4:2:0
Bit depth : 8 bits
Scan type : Progressive
Bits/(Pixel*Frame) : 0.073
Stream size : 1.16 GiB (95%)
Title : themoviesboss
Default : Yes
Forced : No
Color range : Limited
Color primaries : BT.709
Transfer characteristics : BT.709
Matrix coefficients : BT.709

Audio
ID : 2
Format : AAC LC
Format/Info : Advanced Audio Codec Low Complexity
Codec ID : A_AAC-2
Duration : 2 h 19 min
Bit rate : 64.1 kb/s
Channel(s) : 2 channels
Channel layout : L R
Sampling rate : 48.0 kHz
Frame rate : 46.875 FPS (1024 SPF)
Compression mode : Lossy
Stream size : 64.2 MiB (5%)
Title : themoviesboss
Language : Hindi
Default : Yes
Forced : No

Text
ID : 3
Format : UTF-8
Codec ID : S_TEXT/UTF8
Codec ID/Info : UTF-8 Plain Text
Duration : 2 h 12 min
Bit rate : 55 b/s
Frame rate : 0.225 FPS
Count of elements : 1797
Stream size : 53.7 KiB (0%)
Title : themoviesboss
Language : English
Default : No
Forced : No



Screenshots:













Files:

  • Drishyam.2.2022.720p.AMZN.WEBRip.AAC.H.264-themoviesboss.mkv (1.2 GB)

There are currently no comments. Feel free to leave one :)

Code:

  • udp://tracker.tiny-vps.com:6969/announce
  • udp://fasttracker.foreverpirates.co:6969/announce
  • udp://tracker.opentrackr.org:1337/announce
  • udp://explodie.org:6969/announce
  • udp://open.stealth.si:80/announce
  • udp://tracker.cyberia.is:6969/announce
  • udp://ipv4.tracker.harry.lu:80/announce
  • udp://tracker.uw0.xyz:6969/announce
  • udp://tracker.dler.org:6969/announce
  • udp://9.rarbg.to:2710/announce
  • udp://open.demonii.com:1337/announce
  • udp://zecircle.xyz:6969/announce
  • udp://tracker.leech.ie:1337/announce
  • udp://tracker.pomf.se:80/announce
  • udp://run-2.publictracker.xyz:6969/announce