Drishyam 2 (2022) Hindi (1080p AMZN WEBRip x265 HEVC 10bit DDP 5....

  • Category Movies
  • Type Bollywood
  • Language Hindi
  • Total size 1.8 GB
  • Uploaded By Musafirboy
  • Downloads 7126
  • Last checked 3 weeks ago
  • Date uploaded 1 month ago
  • Seeders 91
  • Leechers 26

Drishyam 2

CrimeThrillerDramaMystery

7 years after the case related to Vijay Salgaonkar and his family was closed, a series of unexpected events bring truth to light that threatens to change everything for the Salgaonkars. Can Vijay save his family this time?

Infohash : AB5DA08C86679CEAF74F4E770D67535EE52E6664





Drishyam 2 (2022) | Hindi

📀1080p AMZN WEBRip | HEVC 10Bit | DDP 5.1

🔊 Original Audio: Hindi











Media Information


Code:

General
Unique ID : 171120011954409197497571471183220357051 (0x80BC83F882319E50BEF3221F3E7CB7BB)
Complete name : Drishyam.2.(2022).Hindi.1080p.WEBRip.10bit.DDP.5.1.HEVC-[Musafirboy].mkv
Format : Matroska
Format version : Version 4
File size : 1.78 GiB
Duration : 2 h 19 min
Overall bit rate : 1816 kb/s
Movie name : Drishyam.2.(2022).Hindi.1080p.WEBRip.10bit.DDP.5.1.HEVC-[Musafirboy]
Encoded date : UTC 2022-12-31 06:38:19
Writing application : [mboy3ncode]
Cover : Yes
Attachments : cover.jpg

Video
Format : HEVC
Format/Info : High Efficiency Video Coding
Format profile : Main [email protected]@High
Codec ID : V_MPEGH/ISO/HEVC
Duration : 2 h 19 min
Bit rate : 1429 kb/s
Width : 1920 pixels
Height : 800 pixels
Display aspect ratio : 2.40:1
Frame rate mode : Variable
Frame rate : 24.000 FPS
Color space : YUV
Chroma subsampling : 4:2:0
Bit depth : 10 bits
Bits/(Pixel*Frame) : 0.039
Stream size : 1.40 GiB (79%)
Title : [Musafirboy]
Default : Yes
Forced : No
Color range : Limited
Color primaries : BT.709
Transfer characteristics : BT.709
Matrix coefficients : BT.709

Audio
Format : E-AC-3
Format/Info : Enhanced AC-3
Commercial name : Dolby Digital Plus
Codec ID : A_EAC3
Duration : 2 h 19 min
Bit rate mode : Constant
Bit rate : 384 kb/s
Channel(s) : 6 channels
Channel layout : L R C LFE Ls Rs
Sampling rate : 48.0 kHz
Frame rate : 31.250 FPS (1536 SPF)
Compression mode : Lossy
Stream size : 384 MiB (21%)
Language : Hindi
Service kind : Complete Main
Default : Yes
Forced : No

Subtitle
Format : UTF-8
Codec ID : S_TEXT/UTF8
Codec ID/Info : UTF-8 Plain Text
Duration : 2 h 12 min
Bit rate : 55 b/s
Count of elements : 1797
Stream size : 53.7 KiB (0%)
Language : English
Default : Yes
Forced : No


Source Information


Code:

1080p AMZN WEB-DL








If you are financially able, please consider making a donation

bitcoin address: 3MHSQJWzztF6gv97qzqeoZSadPZ2GziMSX


Files:

Drishyam.2.(2022).Hindi.1080p.WEBRip.10bit.DDP.5.1.HEVC-[Musafirboy]
  • Drishyam.2.(2022).Hindi.1080p.WEBRip.10bit.DDP.5.1.HEVC-[Musafirboy].mkv (1.8 GB)
  • Encoded by Musafirboy.txt (0.4 KB)
  • MusafirBox Plex Streaming.url (0.1 KB)
  • Visit us for HEVC 10bit Contents.url (0.1 KB)

There are currently no comments. Feel free to leave one :)

Code:

  • udp://tracker.leechers-paradise.org:6969/announce
  • udp://tracker.coppersurfer.tk:6969/announce
  • udp://tracker.opentrackr.org:1337/announce
  • udp://p4p.arenabg.com:1337/announce
  • https://tracker.nanoha.org:443/announce
  • https://tracker.lilithraws.cf:443/announce
  • https://tracker.iriseden.fr:443/announce
  • https://t1.tokhmi.xyz:443/announce
  • http://vps02.net.orel.ru:80/announce
  • http://googer.cc:1337/announce
  • https://tracker.nitrix.me:443/announce
  • https://mytracker.fly.dev:443/announce
  • http://tracker.bt4g.com:2095/announce
  • http://fxtt.ru:80/announce