Varisu (Hindi) 2023 720p HEVC V2 HQ Proper DVDScr Rip Hndi ORG AA...

  • Category Movies
  • Type Bollywood
  • Language Hindi
  • Total size 868.7 MB
  • Uploaded By hdwebmovies
  • Downloads 10769
  • Last checked 1 week ago
  • Date uploaded 2 weeks ago
  • Seeders 366
  • Leechers 121

Infohash : 359F54EB80E18DD969469A32B30A3E9437FF1D5B




File Info



Format : HEVC
Format/Info : High Efficiency Video Coding
Format profile : [email protected]@Main
Codec ID : V_MPEGH/ISO/HEVC
Duration : 2 h 45 min
Bit rate : 610 kb/s
Width : 1 280 pixels
Height : 522 pixels
Display aspect ratio : 2.450
Original display aspect ratio : 2.40:1
Frame rate mode : Constant
Frame rate : 25.000 FPS
Color space : YUV
Chroma subsampling : 4:2:0 (Type 0)
Bit depth : 8 bits
Bits/(Pixel*Frame) : 0.037
Stream size : 722 MiB (90%)
Writing library : x265 3.5+1-f0c1022b6:[Windows][GCC 10.2.0][64 bit] 8bit+10bit+12bit
Default : Yes
Forced : No
Color range : Limited
Color primaries : BT.709
Transfer characteristics : BT.709
Matrix coefficients : BT.709

Audio
ID : 2
Format : AAC LC
Format/Info : Advanced Audio Codec Low Complexity
Codec ID : A_AAC-2
Duration : 2 h 45 min
Bit rate : 64.6 kb/s
Channel(s) : 2 channels
Channel layout : L R
Sampling rate : 44.1 kHz
Frame rate : 43.066 FPS (1024 SPF)
Compression mode : Lossy
Delay relative to video : -23 ms
Stream size : 76.5 MiB (10%)
Language : Hindi
Default : Yes
Forced : No



Screenshots:















____________________________________

Files:

Varisu (Hindi) 2023 720p HEVC V2 HQ Proper DVDScr Rip Hndi ORG AAC x265 -HDWebMovies
  • Varisu (Hindi) 2023 V2 HQ Proper DVDScr Sample -HDWebMovies.mkv (68.0 MB)
  • Varisu (Hindi) 2023 720p HEVC V2 HQ Proper DVDScr Rip Hndi ORG AAC x265 -HDWebMovies.mkv (800.7 MB)

There are currently no comments. Feel free to leave one :)

Code:

  • udp://tracker.tiny-vps.com:6969/announce
  • udp://fasttracker.foreverpirates.co:6969/announce
  • udp://tracker.opentrackr.org:1337/announce
  • udp://explodie.org:6969/announce
  • udp://open.stealth.si:80/announce
  • udp://tracker.cyberia.is:6969/announce
  • udp://ipv4.tracker.harry.lu:80/announce
  • udp://tracker.uw0.xyz:6969/announce
  • udp://tracker.dler.org:6969/announce
  • udp://9.rarbg.to:2710/announce
  • udp://open.demonii.com:1337/announce
  • udp://zecircle.xyz:6969/announce
  • udp://tracker.leech.ie:1337/announce
  • udp://tracker.pomf.se:80/announce
  • udp://run-2.publictracker.xyz:6969/announce