[ENTE] Re Zero Kara Hajimeru Isekai Seikatsu (2016) S02 [AV1] [OP...

  • Category Anime
  • Type Subbed
  • Language English
  • Total size 5.4 GB
  • Uploaded By ente
  • Downloads 33
  • Last checked 7 hours ago
  • Date uploaded 1 week ago
  • Seeders 0
  • Leechers 1

Infohash : 47650968A0047B9458FAC620732350A69AA58149


AV1 encode of Moozzi2's ReZero Season 2. Has JP commentary.

Added ENG subtitles (Astral mod. Tenrai-Sensei). Cleaned and verified attachments.


General
Unique ID : 245777127679503607072016190420347492934 (0xB8E6F3F6C82F7CACC4374B1E5E139A46)
Complete name : [ENTE] Re Zero Kara Hajimeru Isekai Seikatsu (2016) S02E01 [AV1] [OPUS] [BD] [1080p] [1AC96944].mkv
Format : Matroska
Format version : Version 4
File size : 165 MiB
Duration : 28 min 41 s
Overall bit rate : 805 kb/s
Encoded date : UTC 2023-01-25 18:48:17
Writing application : mkvmerge v60.0.0 ('Are We Copies?') 64-bit
Writing library : libebml v1.4.2 + libmatroska v1.6.3
Attachments : accid.ttf / AdobeCaslonPro-Bold.otf / AdobeCaslonPro-BoldItalic.otf / A-OTF-GothicMB101Pro-Bold.otf / ArialRoundedMT-Bold.ttf / CorruptionV2.ttf / CronosPro-Bold.otf / CronosPro-BoldItalic.otf / Dion.otf / FOT-MatissePro-BIBO.ttf / FOT-MatissePro-B-Toaru.ttf / LittleBits.ttf / MeriendaOne.ttf / Scratch.ttf / SketchitMeansSketchit.ttf / Westlake.otf

Video
ID : 1
Format : AV1
Format/Info : AOMedia Video 1
Format profile : [email protected]
Codec ID : V_AV1
Duration : 28 min 41 s
Bit rate : 482 kb/s
Width : 1 920 pixels
Height : 1 080 pixels
Display aspect ratio : 16:9
Frame rate mode : Constant
Frame rate : 23.976 (24000/1001) FPS
Color space : YUV
Chroma subsampling : 4:2:0
Bit depth : 10 bits
Bits/(Pixel*Frame) : 0.010
Stream size : 98.9 MiB (60%)
Default : No
Forced : No
Color range : Limited
Color primaries : BT.709
Transfer characteristics : BT.709
Matrix coefficients : BT.709

Audio #1
ID : 2
Format : Opus
Codec ID : A_OPUS
Duration : 28 min 41 s
Bit rate : 153 kb/s
Channel(s) : 2 channels
Channel layout : L R
Sampling rate : 48.0 kHz
Frame rate : 50.001 FPS (960 SPF)
Bit depth : 32 bits
Compression mode : Lossy
Stream size : 31.5 MiB (19%)
Title : Main Audio
Language : Japanese
Default : Yes
Forced : No

Audio #2
ID : 3
Format : Opus
Codec ID : A_OPUS
Duration : 28 min 41 s
Bit rate : 138 kb/s
Channel(s) : 2 channels
Channel layout : L R
Sampling rate : 48.0 kHz
Frame rate : 50.001 FPS (960 SPF)
Bit depth : 32 bits
Compression mode : Lossy
Stream size : 28.3 MiB (17%)
Title : Commentary
Language : Japanese
Default : Yes
Forced : No

Text
ID : 4
Format : ASS
Codec ID : S_TEXT/ASS
Codec ID/Info : Advanced Sub Station Alpha
Duration : 27 min 58 s
Bit rate : 195 b/s
Count of elements : 480
Compression mode : Lossless
Stream size : 40.1 KiB (0%)
Language : English
Default : Yes
Forced : No

Menu
00:00:00.000 : :Prologue
00:05:52.018 : :Part A
00:14:20.067 : :Part B
00:24:02.107 : :Part C
00:28:37.020 : Preview

Files:

[ENTE] Re Zero Kara Hajimeru Isekai Seikatsu (2016) S02 [AV1] [OPUS] [BD] [1080p]
  • [ENTE] Re Zero Kara Hajimeru Isekai Seikatsu (2016) S02E01 [AV1] [OPUS] [BD] [1080p] [1AC96944].mkv (165.1 MB)
  • [ENTE] Re Zero Kara Hajimeru Isekai Seikatsu (2016) S02E02 [AV1] [OPUS] [BD] [1080p] [07B073CA].mkv (194.8 MB)
  • [ENTE] Re Zero Kara Hajimeru Isekai Seikatsu (2016) S02E03 [AV1] [OPUS] [BD] [1080p] [E688A1F3].mkv (126.2 MB)
  • [ENTE] Re Zero Kara Hajimeru Isekai Seikatsu (2016) S02E04 [AV1] [OPUS] [BD] [1080p] [86295895].mkv (160.0 MB)
  • [ENTE] Re Zero Kara Hajimeru Isekai Seikatsu (2016) S02E05 [AV1] [OPUS] [BD] [1080p] [BF0C9F8C].mkv (168.6 MB)
  • [ENTE] Re Zero Kara Hajimeru Isekai Seikatsu (2016) S02E06 [AV1] [OPUS] [BD] [1080p] [26EFF840].mkv (141.0 MB)
  • [ENTE] Re Zero Kara Hajimeru Isekai Seikatsu (2016) S02E07 [AV1] [OPUS] [BD] [1080p] [E65FB84F].mkv (144.2 MB)
  • [ENTE] Re Zero Kara Hajimeru Isekai Seikatsu (2016) S02E08 [AV1] [OPUS] [BD] [1080p] [1D7510C2].mkv (191.6 MB)
  • [ENTE] Re Zero Kara Hajimeru Isekai Seikatsu (2016) S02E09 [AV1] [OPUS] [BD] [1080p] [21038ACF].mkv (154.8 MB)
  • [ENTE] Re Zero Kara Hajimeru Isekai Seikatsu (2016) S02E10 [AV1] [OPUS] [BD] [1080p] [23952A9E].mkv (113.2 MB)
  • [ENTE] Re Zero Kara Hajimeru Isekai Seikatsu (2016) S02E11 [AV1] [OPUS] [BD] [1080p] [711AAB24].mkv (179.4 MB)
  • [ENTE] Re Zero Kara Hajimeru Isekai Seikatsu (2016) S02E12 [AV1] [OPUS] [BD] [1080p] [154551DF].mkv (177.9 MB)
  • [ENTE] Re Zero Kara Hajimeru Isekai Seikatsu (2016) S02E13 [AV1] [OPUS] [BD] [1080p] [60A5A454].mkv (131.6 MB)
  • [ENTE] Re Zero Kara Hajimeru Isekai Seikatsu (2016) S02E14 [AV1] [OPUS] [BD] [1080p] [EDAB731D].mkv (122.1 MB)
  • [ENTE] Re Zero Kara Hajimeru Isekai Seikatsu (2016) S02E15 [AV1] [OPUS] [BD] [1080p] [5F990333].mkv (540.4 MB)
  • [ENTE] Re Zero Kara Hajimeru Isekai Seikatsu (2016) S02E16 [AV1] [OPUS] [BD] [1080p] [83022B91].mkv (388.9 MB)
  • [ENTE] Re Zero Kara Hajimeru Isekai Seikatsu (2016) S02E17 [AV1] [OPUS] [BD] [1080p] [5F2EE069].mkv (151.9 MB)
  • [ENTE] Re Zero Kara Hajimeru Isekai Seikatsu (2016) S02E18 [AV1] [OPUS] [BD] [1080p] [7288F1FA].mkv (203.2 MB)
  • [ENTE] Re Zero Kara Hajimeru Isekai Seikatsu (2016) S02E19 [AV1] [OPUS] [BD] [1080p] [3FBDECA7].mkv (204.9 MB)
  • [ENTE] Re Zero Kara Hajimeru Isekai Seikatsu (2016) S02E20 [AV1] [OPUS] [BD] [1080p] [DB8555D7].mkv (206.7 MB)
  • [ENTE] Re Zero Kara Hajimeru Isekai Seikatsu (2016) S02E21 [AV1] [OPUS] [BD] [1080p] [95D54CF2].mkv (163.4 MB)
  • [ENTE] Re Zero Kara Hajimeru Isekai Seikatsu (2016) S02E22 [AV1] [OPUS] [BD] [1080p] [53F2465B].mkv (175.7 MB)
  • [ENTE] Re Zero Kara Hajimeru Isekai Seikatsu (2016) S02E23 [AV1] [OPUS] [BD] [1080p] [1A1816D1].mkv (457.9 MB)
  • [ENTE] Re Zero Kara Hajimeru Isekai Seikatsu (2016) S02E24 [AV1] [OPUS] [BD] [1080p] [8EDFB70B].mkv (593.8 MB)
  • [ENTE] Re Zero Kara Hajimeru Isekai Seikatsu (2016) S02E25 [AV1] [OPUS] [BD] [1080p] [032848B4].mkv (230.6 MB)

There are currently no comments. Feel free to leave one :)

Code:

  • http://anidex.moe:6969/announce
  • udp://open.stealth.si:80/announce
  • udp://tracker.opentrackr.org:1337/announce
  • udp://tracker.torrent.eu.org:451/announce
  • udp://tracker.openbittorrent.com:6969/announce
  • http://tracker.openbittorrent.com:80/announce
  • udp://www.torrent.eu.org:451/announce
  • udp://tracker.leechers-paradise.org:6969/announce
  • udp://tracker.coppersurfer.tk:6969/announce
  • udp://tracker.zer0day.to:1337/announce
  • udp://eddie4.nl:6969/announce