22.Jump.Street.2014.1080p.BluRay.10Bit.HEVC.EAC3.5.1-jmux

  • Category Movies
  • Type HEVC/x265
  • Language English
  • Total size 7.5 GB
  • Uploaded By jmux
  • Downloads 57
  • Last checked 3 days ago
  • Date uploaded 1 week ago
  • Seeders 21
  • Leechers 6

22 Jump Street

ActionComedyCrime

After making their way through high school (twice), big changes are in store for officers Schmidt and Jenko when they go deep undercover at a local college. But when Jenko meets a kindred spirit on the football team, and Schmidt infiltrates the bohemian art major scene, they begin to question their partnership. Now they don't have to just crack the case - they have to figure out if they can have a mature relationship. If these two overgrown adolescents can grow from freshmen into real men, college might be the best thing that ever happened to them.

Infohash : E59EC23EA7CB845C79E2A3DE27983F7B0159588D


Source: Bluray Remux

General
Format : Matroska
Format version : Version 4
File size : 7.54 GiB
Duration : 1 h 51 min
Overall bit rate : 9 640 kb/s
Encoded date : UTC 2023-03-15 01:53:01
Writing application : mkvmerge v74.0.0 ('You Oughta Know') 64-bit
Writing library : libebml v1.4.4 + libmatroska v1.7.1

Video
ID : 1
Format : HEVC
Format/Info : High Efficiency Video Coding
Format profile : Main [email protected]@High
Codec ID : V_MPEGH/ISO/HEVC
Duration : 1 h 51 min
Bit rate : 8 943 kb/s
Width : 1 920 pixels
Height : 1 080 pixels
Display aspect ratio : 16:9
Frame rate mode : Constant
Frame rate : 23.976 (24000/1001) FPS
Color space : YUV
Chroma subsampling : 4:2:0
Bit depth : 10 bits
Bits/(Pixel*Frame) : 0.180
Stream size : 6.99 GiB (93%)
Language : English
Default : Yes
Forced : No
Color range : Limited

Audio
ID : 2
Format : E-AC-3
Format/Info : Enhanced AC-3
Commercial name : Dolby Digital Plus
Codec ID : A_EAC3
Duration : 1 h 51 min
Bit rate mode : Constant
Bit rate : 640 kb/s
Channel(s) : 6 channels
Channel layout : L R C LFE Ls Rs
Sampling rate : 48.0 kHz
Frame rate : 31.250 FPS (1536 SPF)
Bit depth : 32 bits
Compression mode : Lossy
Stream size : 512 MiB (7%)
Language : English
Service kind : Complete Main
Default : Yes
Forced : No

Text
ID : 3
Format : PGS
Codec ID : S_HDMV/PGS
Codec ID/Info : Picture based subtitle format used on BDs/HD-DVDs
Duration : 1 h 50 min
Bit rate : 55.4 kb/s
Frame rate : 0.607 FPS
Count of elements : 4028
Stream size : 43.8 MiB (1%)
Title : English
Language : English
Default : No
Forced : No

Files:

  • 22.Jump.Street.2014.1080p.BluRay.10Bit.HEVC.EAC3.5.1-jmux.mkv (7.5 GB)

There are currently no comments. Feel free to leave one :)

Code:

  • udp://tracker.leechers-paradise.org:6969/announce
  • udp://tracker.coppersurfer.tk:6969/announce
  • udp://tracker.opentrackr.org:1337/announce
  • udp://tracker.zer0day.to:1337/announce
  • udp://eddie4.nl:6969/announce
  • udp://9.rarbg.com:2810/announce
  • udp://tracker.openbittorrent.com:6969/announce
  • udp://open.demonii.com:1337/announce
  • udp://tracker.torrent.eu.org:451/announce
  • udp://tracker.tiny-vps.com:6969/announce