A.Nightmare.on.Elm.Street.3.Dream.Warriors.1987.1080p.BluRay.x265...

  • Category Movies
  • Type HD
  • Language English
  • Total size 4.6 GB
  • Uploaded By N0DS13
  • Downloads 748
  • Last checked 10 months ago
  • Date uploaded 10 months ago
  • Seeders 29
  • Leechers 8

A Nightmare on Elm Street 3: Dream ...

HorrorThriller

It's been many years since Freddy Krueger's first victim, Nancy, came face-to-face with Freddy and his sadistic, evil ways. Now, Nancy's all grown up; she's put her frightening nightmares behind her and is helping teens cope with their dreams. Too bad Freddy's decided to herald his return by invading the kids' dreams and scaring them into committing suicide.

Infohash : E7A3B9999DD4DA294DBD980161CE751B7206A358

Warning! Use a V𝙿N When Downloading Torrents!
Your IP Address is . Location
Your Internet Provider can see when you download torrents! Hide your IP Address with a V𝙿N
1337x recommends using Trust.Zone V𝙿N to hide your torrenting. It's FREE HIDE ME NOW




Genre : Horror
Director : Chuck Russell
Stars : Heather Langenkamp, Robert Englund, Craig Wasson
Plot : A psychiatrist familiar with knife-wielding dream demon Freddy Krueger helps teens at a mental hospital battle the killer who is invading their dreams.
IMDB Rating : 6.6/10







General
Format                                   : Matroska
Format version                           : Version 4
File size                                : 4.55 GiB
Duration                                 : 1 h 36 min
Overall bit rate mode                    : Variable
Overall bit rate                         : 6 754 kb/s
Frame rate                               : 23.976 FPS
Movie name                               : A Nightmare on Elm Street 3: Dream Warriors
Encoded date                             : 2023-05-25 17:26:39 UTC
Writing application                      : mkvmerge v76.0 ('Celebration') 64-bit
Writing library                          : libebml v1.4.4 + libmatroska v1.7.1

Video
ID                                       : 1
Format                                   : HEVC
Format/Info                              : High Efficiency Video Coding
Format profile                           : Main 10@L4@Main
Codec ID                                 : V_MPEGH/ISO/HEVC
Duration                                 : 1 h 36 min
Bit rate                                 : 2 502 kb/s
Width                                    : 1 920 pixels
Height                                   : 1 080 pixels
Display aspect ratio                     : 16:9
Frame rate mode                          : Constant
Frame rate                               : 23.976 (24000/1001) FPS
Color space                              : YUV
Chroma subsampling                       : 4:2:0 (Type 0)
Bit depth                                : 10 bits
Bits/(Pixel*Frame)                       : 0.050
Stream size                              : 1.69 GiB (37%)
Writing library                          : x265 3.5+1-f0c1022b6:[Windows][GCC 10.2.0][64 bit] 10bit
Default                                  : Yes
Forced                                   : No
Color range                              : Limited
Color primaries                          : BT.709
Transfer characteristics                 : BT.709
Matrix coefficients                      : BT.709

Audio #1
ID                                       : 2
Format                                   : DTS XLL
Format/Info                              : Digital Theater Systems
Commercial name                          : DTS-HD Master Audio
Codec ID                                 : A_DTS
Duration                                 : 1 h 36 min
Bit rate mode                            : Variable
Bit rate                                 : 3 997 kb/s
Channel(s)                               : 6 channels
Channel layout                           : C L R Ls Rs LFE
Sampling rate                            : 48.0 kHz
Frame rate                               : 93.750 FPS (512 SPF)
Bit depth                                : 24 bits
Compression mode                         : Lossless
Stream size                              : 2.70 GiB (59%)
Title                                    : DTS-HD MA 5.1 Surround
Language                                 : English
Default                                  : Yes
Forced                                   : No

Audio #2
ID                                       : 3
Format                                   : AAC LC
Format/Info                              : Advanced Audio Codec Low Complexity
Codec ID                                 : A_AAC-2
Duration                                 : 1 h 36 min
Bit rate                                 : 250 kb/s
Channel(s)                               : 2 channels
Channel layout                           : L R
Sampling rate                            : 48.0 kHz
Frame rate                               : 46.875 FPS (1024 SPF)
Compression mode                         : Lossy
Delay relative to video                  : -21 ms
Stream size                              : 173 MiB (4%)
Title                                    : AAC Stereo
Language                                 : Russian
Default                                  : No
Forced                                   : No

Text #1
ID                                       : 4
Format                                   : UTF-8
Codec ID                                 : S_TEXT/UTF8
Codec ID/Info                            : UTF-8 Plain Text
Duration                                 : 1 h 29 min
Bit rate                                 : 48 b/s
Frame rate                               : 0.185 FPS
Count of elements                        : 991
Stream size                              : 32.0 KiB (0%)
Title                                    : English
Language                                 : English
Default                                  : No
Forced                                   : No

Text #2
ID                                       : 5
Format                                   : UTF-8
Codec ID                                 : S_TEXT/UTF8
Codec ID/Info                            : UTF-8 Plain Text
Duration                                 : 1 h 29 min
Bit rate                                 : 51 b/s
Frame rate                               : 0.203 FPS
Count of elements                        : 1088
Stream size                              : 33.9 KiB (0%)
Title                                    : English [SDH]
Language                                 : English
Default                                  : No
Forced                                   : No

Text #3
ID                                       : 6
Format                                   : UTF-8
Codec ID                                 : S_TEXT/UTF8
Codec ID/Info                            : UTF-8 Plain Text
Duration                                 : 1 h 31 min
Bit rate                                 : 65 b/s
Frame rate                               : 0.160 FPS
Count of elements                        : 880
Stream size                              : 44.1 KiB (0%)
Title                                    : Russian
Language                                 : Russian
Default                                  : No
Forced                                   : No

Menu
00:00:00.000                             : 00:00:00.000
00:03:21.868                             : 00:03:21.868
00:04:12.252                             : 00:04:12.127
00:08:31.177                             : 00:08:31.094
00:09:31.738                             : 00:09:31.613
00:14:37.543                             : 00:14:37.502
00:18:49.962                             : 00:18:49.879
00:22:50.870                             : 00:22:50.744
00:25:54.053                             : 00:25:53.927
00:29:25.430                             : 00:29:25.430
00:32:41.793                             : 00:32:41.710
00:35:38.803                             : 00:35:38.803
00:38:42.654                             : 00:38:42.570
00:40:16.748                             : 00:40:16.623
00:42:05.523                             : 00:42:05.523
00:47:44.528                             : 00:47:44.445
00:50:46.043                             : 00:50:46.043
00:54:43.280                             : 00:54:43.280
00:59:11.048                             : 00:59:10.922
01:02:54.437                             : 01:02:54.354
01:06:19.476                             : 01:06:19.392
01:10:41.571                             : 01:10:41.487
01:12:51.534                             : 01:12:51.492
01:14:56.993                             : 01:14:56.909
01:16:51.107                             : 01:16:50.981
01:18:58.734                             : 01:18:58.734
01:21:10.866                             : 01:21:10.866
01:24:17.219                             : 01:24:17.135
01:26:37.526                             : 01:26:37.401
01:30:57.452                             : 01:30:57.327
01:32:32.380                             : 01:32:32.297

Files:

A.Nightmare.on.Elm.Street.3.Dream.Warriors.1987.1080p.BluRay.x265.DTS-HD.5.1-N0DS13
  • A.Nightmare.on.Elm.Street.3.Dream.Warriors.1987.1080p.BluRay.x265.DTS-HD.5.1-N0DS13.mkv (4.6 GB)
  • ReadMe.txt (0.6 KB)
  • Screenshots
    • Screenshot_01.jpg (183.4 KB)
    • Screenshot_02.jpg (268.5 KB)
    • Screenshot_03.jpg (261.8 KB)
    • Screenshot_04.jpg (277.6 KB)
    • Screenshot_05.jpg (319.2 KB)

There are currently no comments. Feel free to leave one :)

Code:

  • http://atrack.pow7.com/announce
  • http://open.acgtracker.com:1096/announce
  • http://pow7.com:80/announce
  • http://t1.pow7.com/announce
  • http://t2.pow7.com/announce
  • http://tracker.bittor.pw:1337/announce
  • http://tracker.dler.org:6969/announce
  • http://tracker.internetwarriors.net:1337/announce
  • http://tracker.opentrackr.org:1337/announce
  • http://tracker.skyts.net:6969/announce
  • udp://eddie4.nl:6969/announce
  • udp://explodie.org:6969/announce
  • udp://p4p.arenabg.com:1337/announce
  • udp://tracker.bittor.pw:1337/announce
  • udp://tracker.coppersurfer.tk:6969/announce
  • udp://tracker.internetwarriors.net:1337/announce
  • udp://tracker.leechers-paradise.org:6969/announce
  • udp://tracker.opentrackr.org:1337/announce
  • udp://tracker.tiny-vps.com:6969/announce