The Flash (2014) Season 9 S09 (1080p AMZN WEB-DL x265 HEVC 10bit ...

  • Category TV
  • Type HEVC/x265
  • Language English
  • Total size 11.4 GB
  • Uploaded By ReVyndros
  • Downloads 719
  • Last checked 5 days ago
  • Date uploaded 2 weeks ago
  • Seeders 49
  • Leechers 23

Infohash : 9475C963CF1BBE6F24263D168FBDD51E0B9A3792
























Media Information

Code:

General
Format : Matroska
Format version : Version 4 / Version 2
File size : 1.06 GiB
Duration : 42 min 24 s
Overall bit rate : 3 562 kb/s
Encoded date : UTC 2023-05-25 19:53:41
Writing application : mkvmerge v59.0.0 ('Shining Star') 64-bit
Writing library : libebml v1.4.2 + libmatroska v1.6.4

Video
ID : 1
Format : HEVC
Format/Info : High Efficiency Video Coding
Format profile : Main [email protected]@Main
Codec ID : V_MPEGH/ISO/HEVC
Duration : 42 min 24 s
Bit rate : 2 920 kb/s
Width : 1 920 pixels
Height : 960 pixels
Display aspect ratio : 2.000
Frame rate mode : Constant
Frame rate : 23.976 (24000/1001) FPS
Color space : YUV
Chroma subsampling : 4:2:0
Bit depth : 10 bits
Bits/(Pixel*Frame) : 0.066
Stream size : 886 MiB (82%)
Writing library : x265 3.5+82-82225f9a5:[Windows][MSVC 1934][64 bit] 10bit
Encoding settings : cpuid=1111039 / frame-threads=3 / numa-pools=12 / wpp / no-pmode / no-pme / no-psnr / ssim / log-level=2 / input-csp=1 / input-res=1920x960 / interlace=0 / total-frames=61009 / level-idc=0 / high-tier=1 / uhd-bd=0 / ref=3 / no-allow-non-conformance / no-repeat-headers / annexb / no-aud / no-eob / no-eos / no-hrd / info / hash=0 / temporal-layers=0 / open-gop / min-keyint=23 / keyint=250 / gop-lookahead=0 / bframes=8 / b-adapt=2 / b-pyramid / bframe-bias=0 / rc-lookahead=80 / lookahead-slices=6 / scenecut=40 / no-hist-scenecut / radl=0 / no-splice / no-intra-refresh / ctu=64 / min-cu-size=8 / no-rect / no-amp / max-tu-size=32 / tu-inter-depth=1 / tu-intra-depth=1 / limit-tu=0 / rdoq-level=0 / dynamic-rd=0.00 / no-ssim-rd / signhide / no-tskip / nr-intra=0 / nr-inter=0 / no-constrained-intra / no-strong-intra-smoothing / max-merge=5 / limit-refs=1 / no-limit-modes / me=3 / subme=5 / merange=57 / temporal-mvp / no-frame-dup / no-hme / weightp / no-weightb / no-analyze-src-pics / deblock=0:0 / sao / no-sao-non-deblock / rd=3 / selective-sao=4 / early-skip / no-rskip / no-fast-intra / no-tskip-fast / no-cu-lossless / b-intra / no-splitrd-skip / rdpenalty=0 / psy-rd=2.00 / psy-rdoq=0.00 / no-rd-refine / no-lossless / cbqpoffs=0 / crqpoffs=0 / rc=crf / crf=20.0 / qcomp=0.60 / qpstep=4 / stats-write=0 / stats-read=0 / ipratio=1.40 / pbratio=1.30 / aq-mode=3 / aq-strength=1.00 / cutree / zone-count=0 / no-strict-cbr / qg-size=32 / no-rc-grain / qpmax=69 / qpmin=0 / no-const-vbv / sar=0 / overscan=0 / videoformat=5 / range=0 / colorprim=1 / transfer=1 / colormatrix=1 / chromaloc=0 / display-window=0 / cll=0,0 / min-luma=0 / max-luma=1023 / log2-max-poc-lsb=8 / vui-timing-info / vui-hrd-info / slices=1 / no-opt-qp-pps / no-opt-ref-list-length-pps / no-multi-pass-opt-rps / scenecut-bias=0.05 / no-opt-cu-delta-qp / no-aq-motion / no-hdr10 / no-hdr10-opt / no-dhdr10-opt / no-idr-recovery-sei / analysis-reuse-level=0 / analysis-save-reuse-level=0 / analysis-load-reuse-level=0 / scale-factor=0 / refine-intra=0 / refine-inter=0 / refine-mv=1 / refine-ctu-distortion=0 / no-limit-sao / ctu-info=0 / no-lowpass-dct / refine-analysis-type=0 / copy-pic=1 / max-ausize-factor=1.0 / no-dynamic-refine / no-single-sei / no-hevc-aq / no-svt / no-field / qp-adaptation-range=1.00 / scenecut-aware-qp=0conformance-window-offsets / right=0 / bottom=0 / decoder-max-rate=0 / no-vbv-live-multi-pass / no-mcstf / no-sbrc
Default : Yes
Forced : No
Color range : Limited
Color primaries : BT.709
Transfer characteristics : BT.709
Matrix coefficients : BT.709

Audio
ID : 2
Format : E-AC-3
Format/Info : Enhanced Audio Coding 3
Format settings, Endianness : Big
Codec ID : A_EAC3
Duration : 42 min 24 s
Bit rate mode : Constant
Bit rate : 640 kb/s
Channel(s) : 6 channels
Channel positions : Front: L C R, Side: L R, LFE
Sampling rate : 48.0 kHz
Frame rate : 187.500 FPS (256 spf)
Compression mode : Lossy
Stream size : 194 MiB (18%)
Language : English
Default : No
Forced : No

Subtitle #1
ID : 3
Format : UTF-8
Codec ID : S_TEXT/UTF8
Codec ID/Info : UTF-8 Plain Text
Duration : 42 min 14 s
Bit rate : 56 b/s
Count of elements : 601
Stream size : 17.3 KiB (0%)
Language : English
Default : No
Forced : No

Subtitle #2
ID : 4
Format : UTF-8
Codec ID : S_TEXT/UTF8
Codec ID/Info : UTF-8 Plain Text
Duration : 42 min 14 s
Bit rate : 66 b/s
Count of elements : 776
Stream size : 20.6 KiB (0%)
Title : SDH
Language : English
Default : No
Forced : No



Source Information

Code:

Release:
Amazon WEB-DL

Files:

The Flash (2014) Season 9 S09 (1080p AMZN WEB-DL x265 HEVC 10bit DDP 5.1 Vyndros)
  • The.Flash.S09E01.Wednesday.Ever.After.1080p.10bit.AMZN.WEB-DL.DDP5.1.HEVC-Vyndros.mkv (1.1 GB)
  • The.Flash.S09E02.Hear.No.Evil.1080p.10bit.AMZN.WEB-DL.DDP5.1.HEVC-Vyndros.mkv (1.0 GB)
  • The.Flash.S09E03.Rogues.of.War.1080p.10bit.AMZN.WEB-DL.DDP5.1.HEVC-Vyndros.mkv (848.5 MB)
  • The.Flash.S09E04.Mask.of.the.Red.Death.(1).1080p.10bit.AMZN.WEB-DL.DDP5.1.HEVC-Vyndros.mkv (654.5 MB)
  • The.Flash.S09E05.Mask.of.the.Red.Death.(2).1080p.10bit.AMZN.WEB-DL.DDP5.1.HEVC-Vyndros.mkv (1.0 GB)
  • The.Flash.S09E06.The.Good,.The.Bad.and.The.Lucky.1080p.10bit.AMZN.WEB-DL.DDP5.1.HEVC-Vyndros.mkv (888.0 MB)
  • The.Flash.S09E07.Wildest.Dreams.1080p.10bit.AMZN.WEB-DL.DDP5.1.HEVC-Vyndros.mkv (816.9 MB)
  • The.Flash.S09E08.Partners.in.Time.1080p.10bit.AMZN.WEB-DL.DDP5.1.HEVC-Vyndros.mkv (941.2 MB)
  • The.Flash.S09E09.It's.My.Party.and.I'll.Die.If.I.Want.To.1080p.10bit.AMZN.WEB-DL.DDP5.1.HEVC-Vyndros.mkv (906.0 MB)
  • The.Flash.S09E10.A.New.World.(1).1080p.10bit.AMZN.WEB-DL.DDP5.1.HEVC-Vyndros.mkv (847.1 MB)
  • The.Flash.S09E11.A.New.World.Part.Two.1080p.10bit.AMZN.WEB-DL.DDP5.1.HEVC-Vyndros.mkv (679.4 MB)
  • The.Flash.S09E12.A.New.World.Part.Three.1080p.10bit.AMZN.WEB-DL.DDP5.1.HEVC-Vyndros.mkv (799.7 MB)
  • The.Flash.S09E13.A.New.World.Part.Four.1080p.10bit.AMZN.WEB-DL.DDP5.1.HEVC-Vyndros.mkv (1.1 GB)

Comments

Code:

  • udp://open.stealth.si:80/announce
  • udp://exodus.desync.com:6969/announce
  • udp://tracker.cyberia.is:6969/announce
  • udp://tracker.opentrackr.org:1337/announce
  • udp://tracker.torrent.eu.org:451/announce
  • udp://explodie.org:6969/announce
  • udp://tracker.birkenwald.de:6969/announce
  • udp://tracker.moeking.me:6969/announce
  • udp://ipv4.tracker.harry.lu:80/announce
  • udp://9.rarbg.to:2780/announce
  • udp://uploads.gamecoast.net:6969/announce
  • udp://movies.zsw.ca:6969/announce
  • udp://tracker.srv00.com:6969/announce
  • udp://aarsen.me:6969/announce
  • udp://tracker.altrosky.nl:6969/announce