Ramayana.The.Legend.of.Prince.Rama.1992.DVD5.REMUX.MPEG.DD5.1-DOT

  • Category Movies
  • Type DVD
  • Language English
  • Total size 4.3 GB
  • Uploaded By jonathan909
  • Downloads 3782
  • Last checked 10 months ago
  • Date uploaded 10 months ago
  • Seeders 11
  • Leechers 4

Infohash : 717580B7C8120180B74CD5CAB8BB17B8E7B9CF44

Warning! Use a V𝙿N When Downloading Torrents!
Your IP Address is . Location
Your Internet Provider can see when you download torrents! Hide your IP Address with a V𝙿N
1337x recommends using Trust.Zone V𝙿N to hide your torrenting. It's FREE HIDE ME NOW


Ramayana.The.Legend.of.Prince.Rama.1992.DVD5.REMUX.MPEG.DD5.1-DOT

[youtube]42tDHKICVOM[/youtube]

https://www.imdb.com/title/tt0259534/



Code:

General
Format                                   : Matroska
Format version                           : Version 2
File size                                : 4.29 GiB
Duration                                 : 2 h 11 min
Overall bit rate                         : 4 691 kb/s
Encoded date                             : UTC 2021-05-26 12:34:31
Writing application                      : MakeMKV v1.16.3 win(x64-release)
Writing library                          : libmakemkv v1.16.3 (1.3.10/1.5.2) win(x64-release)

Video
ID                                       : 1
ID in the original source medium         : 224 (0xE0)
Format                                   : MPEG Video
Format version                           : Version 2
Format profile                           : Main@Main
Format settings                          : BVOP
Format settings, BVOP                    : Yes
Format settings, Matrix                  : Default
Format settings, GOP                     : M=3, N=13
Format settings, picture structure       : Field
Codec ID                                 : V_MPEG2
Codec ID/Info                            : MPEG 1 or 2 Video
Duration                                 : 2 h 11 min
Bit rate mode                            : Constant
Bit rate                                 : 4 010 kb/s
Maximum bit rate                         : 6 400 kb/s
Width                                    : 720 pixels
Height                                   : 480 pixels
Display aspect ratio                     : 4:3
Frame rate mode                          : Constant
Frame rate                               : 29.970 (30000/1001) FPS
Standard                                 : NTSC
Color space                              : YUV
Chroma subsampling                       : 4:2:0
Bit depth                                : 8 bits
Scan type                                : Interlaced
Scan order                               : Top Field First
Compression mode                         : Lossy
Bits/(Pixel*Frame)                       : 0.387
Time code of first frame                 : 01:00:33:05
Time code source                         : Group of pictures header
GOP, Open/Closed                         : Open
Stream size                              : 3.67 GiB (85%)
Language                                 : English
Default                                  : No
Forced                                   : No
Color primaries                          : BT.601 PAL
Transfer characteristics                 : BT.470 System B/G
Matrix coefficients                      : BT.470 System B/G
Original source medium                   : DVD-Video

Audio #1
ID                                       : 2
ID in the original source medium         : 189 (0xBD)128 (0x80)
Format                                   : AC-3
Format/Info                              : Audio Coding 3
Commercial name                          : Dolby Digital
Codec ID                                 : A_AC3
Duration                                 : 2 h 11 min
Bit rate mode                            : Constant
Bit rate                                 : 448 kb/s
Channel(s)                               : 6 channels
Channel layout                           : L R C LFE Ls Rs
Sampling rate                            : 48.0 kHz
Frame rate                               : 31.250 FPS (1536 SPF)
Compression mode                         : Lossy
Stream size                              : 420 MiB (10%)
Title                                    : Surround 5.1
Language                                 : English
Service kind                             : Complete Main
Default                                  : Yes
Forced                                   : No
Original source medium                   : DVD-Video

Audio #2
ID                                       : 3
ID in the original source medium         : 189 (0xBD)129 (0x81)
Format                                   : AC-3
Format/Info                              : Audio Coding 3
Commercial name                          : Dolby Digital
Codec ID                                 : A_AC3
Duration                                 : 2 h 11 min
Bit rate mode                            : Constant
Bit rate                                 : 224 kb/s
Channel(s)                               : 6 channels
Channel layout                           : L R C LFE Ls Rs
Sampling rate                            : 48.0 kHz
Frame rate                               : 31.250 FPS (1536 SPF)
Compression mode                         : Lossy
Stream size                              : 210 MiB (5%)
Title                                    : Surround 5.1
Language                                 : Hindi
Service kind                             : Complete Main
Default                                  : No
Forced                                   : No
Original source medium                   : DVD-Video

Text
ID                                       : 4
ID in the original source medium         : 189 (0xBD)32 (0x20)
Format                                   : VobSub
Codec ID                                 : S_VOBSUB
Codec ID/Info                            : Picture based subtitle format used on DVDs
Duration                                 : 2 h 5 min
Bit rate                                 : 2 244 b/s
Count of elements                        : 1163
Stream size                              : 2.02 MiB (0%)
Language                                 : English
Default                                  : Yes
Forced                                   : No
Original source medium                   : DVD-Video




Files:

  • Ramayana.The.Legend.of.Prince.Rama.1992.DVD5.REMUX.MPEG.DD5.1-DOT.mkv (4.3 GB)

Comments

Code:

  • udp://tracker.leechers-paradise.org:6969/announce