65.Fuga.Dalla.Terra.2023.ITA-ENG.2160p.MA.WEB-DL.DDP5.1.HDR.DV.H....

  • Category Movies
  • Type UHD
  • Language English
  • Total size 16.7 GB
  • Uploaded By ppb1
  • Downloads 63
  • Last checked 5 days ago
  • Date uploaded 2 weeks ago
  • Seeders 28
  • Leechers 9

Infohash : 70C6806090C359593D2611813DBDB4AFE022DABF


.:: TITOLO ::.



65.Fuga.Dalla.Terra.2023.ITA-ENG.2160p.MA.WEB-DL.DDP5.1.HDR.DV.H.265-gattopollo





.:: INFO FILIM ::.




USA, 2023
Genere: Fantascienza
Durata: 93'
Regia di Scott Beck, Bryan Woods
Con Adam Driver, Chloe Coleman, Ariana Greenblatt
IMDb

.:: TRAMA ::.

Dopo un incidente catastrofico su quello che le mappe segnano come un corpo celeste sconosciuto, il comandante Mills (Adam Driver) scopre in fretta di essere, in realtà, atterrato sulla Terra. Ma non il pianeta da cui è partito, bensì la Terra di 65 milioni di anni fa. Con una sola possibilità di salvezza, Mills e l'unica altra persona scampata all'impatto, Koa, devono farsi strada attraverso territori sconosciuti e pullulanti di pericolose creature preistoriche.


.:: SCREENSHOT ::.




.:: INFO TECNICHE ::.

Sorgente Video: MA (Iniettati metadati DoVi provenienti da iT, in sorgente video HDR )
Sorgente Audio: BD
Risoluzione: 3840x2160, H.265
Audio 1: ITA E-AC3 6ch @1024kb/s
Audio 2: ENG E-AC3 JOC 6ch @768kb/s
Sottotitoli: ITA FORCED, ITA FULL, ENG SDH, etc



.:: MEDIAINFO ::.



Code:


General
Unique ID : 62900813521502691478295955472136492198 (0x2F52418B19705CB599579E5CA69F54A6)
Complete name : 65.Fuga.Dalla.Terra.2023.ITA-ENG.2160p.MA.WEB-DL.DDP5.1.HDR.DV.H.265-gattopollo.mkv
Format : Matroska
Format version : Version 4
File size : 16.7 GiB
Duration : 1 h 32 min
Overall bit rate : 25.7 Mb/s
Frame rate : 23.976 FPS
Writing application : mkvmerge v76.0 ('Celebration') 64-bit
Writing library : libebml v1.4.4 + libmatroska v1.7.1
IMDB : tt12261776
TMDB : movie/700391

Video
ID : 1
Format : HEVC
Format/Info : High Efficiency Video Coding
Format profile : Main [email protected]@High
HDR format : Dolby Vision, Version 1.0, dvhe.08.06, BL+RPU, HDR10 compatible / SMPTE ST 2086, HDR10 compatible
Codec ID : V_MPEGH/ISO/HEVC
Duration : 1 h 32 min
Bit rate : 23.9 Mb/s
Width : 3 840 pixels
Height : 2 160 pixels
Display aspect ratio : 16:9
Frame rate mode : Constant
Frame rate : 23.976 (24000/1001) FPS
Color space : YUV
Chroma subsampling : 4:2:0 (Type 2)
Bit depth : 10 bits
Bits/(Pixel*Frame) : 0.120
Stream size : 15.5 GiB (93%)
Language : English
Default : Yes
Forced : No
Color range : Limited
Color primaries : BT.2020
Transfer characteristics : PQ
Matrix coefficients : BT.2020 non-constant
Mastering display color primaries : Display P3
Mastering display luminance : min: 0.0001 cd/m2, max: 1000 cd/m2
Maximum Content Light Level : 405 cd/m2
Maximum Frame-Average Light Level : 253 cd/m2

Audio #1
ID : 2
Format : E-AC-3
Format/Info : Enhanced AC-3
Commercial name : Dolby Digital Plus
Codec ID : A_EAC3
Duration : 1 h 32 min
Bit rate mode : Constant
Bit rate : 1 024 kb/s
Channel(s) : 6 channels
Channel layout : L R C LFE Ls Rs
Sampling rate : 48.0 kHz
Frame rate : 31.250 FPS (1536 SPF)
Compression mode : Lossy
Delay relative to video : 11 ms
Stream size : 679 MiB (4%)
Language : Italian
Service kind : Complete Main
Default : Yes
Forced : No

Audio #2
ID : 3
Format : E-AC-3 JOC
Format/Info : Enhanced AC-3 with Joint Object Coding
Commercial name : Dolby Digital Plus with Dolby Atmos
Codec ID : A_EAC3
Duration : 1 h 32 min
Bit rate mode : Constant
Bit rate : 768 kb/s
Channel(s) : 6 channels
Channel layout : L R C LFE Ls Rs
Sampling rate : 48.0 kHz
Frame rate : 31.250 FPS (1536 SPF)
Compression mode : Lossy
Delay relative to video : 83 ms
Stream size : 509 MiB (3%)
Language : English
Service kind : Complete Main
Default : No
Forced : No
Complexity index : 16
Number of dynamic objects : 15
Bed channel count : 1 channel
Bed channel configuration : LFE

Text #1
ID : 4
Format : UTF-8
Codec ID : S_TEXT/UTF8
Codec ID/Info : UTF-8 Plain Text
Duration : 15 min 44 s
Bit rate : 1 b/s
Frame rate : 0.008 FPS
Count of elements : 8
Stream size : 217 Bytes (0%)
Title : Forced
Language : Italian
Default : Yes
Forced : Yes

Text #2
ID : 5
Format : UTF-8
Codec ID : S_TEXT/UTF8
Codec ID/Info : UTF-8 Plain Text
Duration : 1 h 31 min
Bit rate : 13 b/s
Frame rate : 0.070 FPS
Count of elements : 382
Stream size : 8.88 KiB (0%)
Language : Italian
Default : No
Forced : No

Text #3
ID : 6
Format : UTF-8
Codec ID : S_TEXT/UTF8
Codec ID/Info : UTF-8 Plain Text
Duration : 1 h 22 min
Bit rate : 15 b/s
Frame rate : 0.073 FPS
Count of elements : 361
Stream size : 9.06 KiB (0%)
Language : English
Default : No
Forced : No

Text #4
ID : 7
Format : UTF-8
Codec ID : S_TEXT/UTF8
Codec ID/Info : UTF-8 Plain Text
Duration : 1 h 29 min
Bit rate : 20 b/s
Frame rate : 0.122 FPS
Count of elements : 653
Stream size : 13.6 KiB (0%)
Title : SDH
Language : English
Default : No
Forced : No

Text #5
ID : 8
Format : UTF-8
Codec ID : S_TEXT/UTF8
Codec ID/Info : UTF-8 Plain Text
Duration : 1 h 31 min
Bit rate : 13 b/s
Frame rate : 0.054 FPS
Count of elements : 298
Stream size : 9.16 KiB (0%)
Language : Danish
Default : No
Forced : No

Text #6
ID : 9
Format : UTF-8
Codec ID : S_TEXT/UTF8
Codec ID/Info : UTF-8 Plain Text
Duration : 1 h 31 min
Bit rate : 14 b/s
Frame rate : 0.067 FPS
Count of elements : 369
Stream size : 9.90 KiB (0%)
Language : German
Default : No
Forced : No

Text #7
ID : 10
Format : UTF-8
Codec ID : S_TEXT/UTF8
Codec ID/Info : UTF-8 Plain Text
Duration : 1 h 31 min
Bit rate : 13 b/s
Frame rate : 0.070 FPS
Count of elements : 385
Stream size : 9.17 KiB (0%)
Title : Latin American
Language : Spanish (Latin America)
Default : No
Forced : No

Text #8
ID : 11
Format : UTF-8
Codec ID : S_TEXT/UTF8
Codec ID/Info : UTF-8 Plain Text
Duration : 1 h 31 min
Bit rate : 13 b/s
Frame rate : 0.071 FPS
Count of elements : 389
Stream size : 9.06 KiB (0%)
Language : Finnish
Default : No
Forced : No

Text #9
ID : 12
Format : UTF-8
Codec ID : S_TEXT/UTF8
Codec ID/Info : UTF-8 Plain Text
Duration : 1 h 31 min
Bit rate : 13 b/s
Frame rate : 0.062 FPS
Count of elements : 339
Stream size : 9.02 KiB (0%)
Language : French
Default : No
Forced : No

Text #10
ID : 13
Format : UTF-8
Codec ID : S_TEXT/UTF8
Codec ID/Info : UTF-8 Plain Text
Duration : 1 h 31 min
Bit rate : 12 b/s
Frame rate : 0.071 FPS
Count of elements : 388
Stream size : 8.34 KiB (0%)
Language : Korean
Default : No
Forced : No

Text #11
ID : 14
Format : UTF-8
Codec ID : S_TEXT/UTF8
Codec ID/Info : UTF-8 Plain Text
Duration : 1 h 23 min
Bit rate : 14 b/s
Frame rate : 0.073 FPS
Count of elements : 365
Stream size : 9.11 KiB (0%)
Language : Malay
Default : No
Forced : No

Text #12
ID : 15
Format : UTF-8
Codec ID : S_TEXT/UTF8
Codec ID/Info : UTF-8 Plain Text
Duration : 1 h 31 min
Bit rate : 11 b/s
Frame rate : 0.056 FPS
Count of elements : 305
Stream size : 7.80 KiB (0%)
Language : Dutch
Default : No
Forced : No

Text #13
ID : 16
Format : UTF-8
Codec ID : S_TEXT/UTF8
Codec ID/Info : UTF-8 Plain Text
Duration : 1 h 31 min
Bit rate : 14 b/s
Frame rate : 0.069 FPS
Count of elements : 379
Stream size : 9.49 KiB (0%)
Title : Brazil
Language : Portuguese (BR)
Default : No
Forced : No

Text #14
ID : 17
Format : UTF-8
Codec ID : S_TEXT/UTF8
Codec ID/Info : UTF-8 Plain Text
Duration : 1 h 31 min
Bit rate : 17 b/s
Frame rate : 0.069 FPS
Count of elements : 375
Stream size : 11.7 KiB (0%)
Language : Vietnamese
Default : No
Forced : No

Text #15
ID : 18
Format : UTF-8
Codec ID : S_TEXT/UTF8
Codec ID/Info : UTF-8 Plain Text
Duration : 1 h 23 min
Bit rate : 11 b/s
Frame rate : 0.077 FPS
Count of elements : 383
Stream size : 6.77 KiB (0%)
Title : Simplified
Language : Chinese (Simplified)
Default : No
Forced : No

Text #16
ID : 19
Format : UTF-8
Codec ID : S_TEXT/UTF8
Codec ID/Info : UTF-8 Plain Text
Duration : 1 h 31 min
Bit rate : 10 b/s
Frame rate : 0.067 FPS
Count of elements : 369
Stream size : 6.98 KiB (0%)
Title : Traditional
Language : Chinese (Traditional)
Default : No
Forced : No

Menu
00:00:00.000 : en:Chapter 01
00:05:35.000 : en:Chapter 02
00:11:43.000 : en:Chapter 03
00:16:40.000 : en:Chapter 04
00:23:03.000 : en:Chapter 05
00:29:08.000 : en:Chapter 06
00:32:22.000 : en:Chapter 07
00:38:20.000 : en:Chapter 08
00:44:27.000 : en:Chapter 09
00:50:06.000 : en:Chapter 10
00:54:42.000 : en:Chapter 11
01:02:22.000 : en:Chapter 12
01:07:10.000 : en:Chapter 13
01:09:26.000 : en:Chapter 14
01:15:28.000 : en:Chapter 15
01:23:05.000 : en:Chapter 16




.:: TORRENT LINK ::.





.:: NOTE ::. [/size]



ATTENZIONE RELEASE DOLBY VISION SINGLE LAYER CON POSSIBILITA' DI FALLBACK IN HDR, PER RIPRODUZIONE DoVi NECESSARIA CONFIGURAZIONE HARDWARE SPECIFICA.
Release testata su Android Plex Nvidia Shield Pro 2019.

Files:

  • 65.Fuga.Dalla.Terra.2023.ITA-ENG.2160p.MA.WEB-DL.DDP5.1.HDR.DV.H.265-gattopollo.mkv (16.7 GB)

There are currently no comments. Feel free to leave one :)

Code:

  • udp://tracker.opentrackr.org:1337/announce
  • udp://opentracker.i2p.rocks:6969/announce
  • https://opentracker.i2p.rocks:443/announce
  • udp://tracker.openbittorrent.com:6969/announce
  • http://tracker.openbittorrent.com:80/announce
  • udp://9.rarbg.com:2810/announce
  • udp://open.demonii.com:1337/announce
  • udp://exodus.desync.com:6969/announce
  • udp://open.stealth.si:80/announce
  • udp://tracker.torrent.eu.org:451/announce