Merry Christmas (2024) Hindi 1080p HDRip x264 AAC 5.1 ESubs - QRi...

  • Category Movies
  • Type Bollywood
  • Language Hindi
  • Total size 2.8 GB
  • Uploaded By mazemaze16
  • Downloads 9576
  • Last checked 1 month ago
  • Date uploaded 1 month ago
  • Seeders 221
  • Leechers 78

Merry Christmas

DramaThriller

On Christmas Eve, Albert returns home after several years of being away. Grieving for and adjusting to the loss of his mother, he steps out seeking cheer in the city's Christmas Eve festivities. He meets the beautiful and mysterious Maria, and her little daughter who is mute. The night fans into long walks and conversations, sparking unexpected, yet undeniable, magnetism between the two. But things soon take a dark turn and an evening of romance turns into a nightmare.

Infohash : 5CCFC668430686496F49C34FAC553B0FC8DF290A

Warning! Use a V𝙿N When Downloading Torrents!
Your IP Address is . Location
Your Internet Provider can see when you download torrents! Hide your IP Address with a V𝙿N
1337x recommends using Trust.Zone V𝙿N to hide your torrenting. It's FREE HIDE ME NOW




Merry Christmas (2024) Hindi 1080p HDRip x264 AAC 5.1 ESubs - QRips



[b]Video
ID : 1
Format : AVC
Format/Info : Advanced Video Codec
Format profile : High@L4
Format settings : CABAC / 5 Ref Frames
Format settings, CABAC : Yes
Format settings, Reference frames : 5 frames
Codec ID : V_MPEG4/ISO/AVC
Duration : 2 h 23 min
Bit rate : 2 600 kb/s
Width : 1 920 pixels
Height : 812 pixels

Audio
ID : 2
Format : AAC LC SBR
Format/Info : Advanced Audio Codec Low Complexity with Spectral Band Replication
Commercial name : HE-AAC
Format settings : NBC
Codec ID : A_AAC-5
Duration : 2 h 23 min
Bit rate : 224 kb/s
Channel(s) : 6 channels
Channel layout : C L R Ls Rs LFE
Sampling rate : 48.0 kHz
Frame rate : 23.438 FPS (2048 SPF)
Compression mode : Lossy
Delay relative to video : -105 ms
Stream size : 230 MiB (8%)
Language : Hindi
Default : Yes
Forced : Yes

Text #1
ID : 3
Format : UTF-8
Codec ID : S_TEXT/UTF8
Codec ID/Info : UTF-8 Plain Text
Duration : 2 h 10 min
Bit rate : 45 b/s
Count of elements : 1501
Stream size : 43.1 KiB (0%)
Language : English
Default : Yes
Forced : Yes

Text #2
ID : 4
Format : UTF-8
Codec ID : S_TEXT/UTF8
Codec ID/Info : UTF-8 Plain Text
Duration : 2 h 11 min
Bit rate : 108 b/s
Count of elements : 1578
Stream size : 105 KiB (0%)
Language : Hindi
Default : No
Forced : No

Text #3
ID : 5
Format : UTF-8
Codec ID : S_TEXT/UTF8
Codec ID/Info : UTF-8 Plain Text
Duration : 2 h 15 min
Bit rate : 119 b/s
Count of elements : 1622
Stream size : 119 KiB (0%)
Language : Hindi
Default : No
Forced : No

Text #4
ID : 6
Format : UTF-8
Codec ID : S_TEXT/UTF8
Codec ID/Info : UTF-8 Plain Text
Duration : 2 h 23 min
Bit rate : 69 b/s
Count of elements : 1537
Stream size : 73.0 KiB (0%)
Language : Arabic
Default : No
Forced : No

Text #5
ID : 7
Format : UTF-8
Codec ID : S_TEXT/UTF8
Codec ID/Info : UTF-8 Plain Text
Duration : 2 h 23 min
Bit rate : 43 b/s
Count of elements : 1539
Stream size : 46.0 KiB (0%)
Language : Spanish
Default : No
Forced : No

Text #6
ID : 8
Format : UTF-8
Codec ID : S_TEXT/UTF8
Codec ID/Info : UTF-8 Plain Text
Duration : 1 h 3 min
Bit rate : 0 b/s
Count of elements : 8
Stream size : 138 Bytes (0%)
Language : Hindi
Default : No
Forced : No


Screens:




Files:

  • Merry Christmas (2024) Hindi 1080p HDRip x264 AAC 5.1 ESubs - QRips.mkv (2.8 GB)

There are currently no comments. Feel free to leave one :)

Code:

  • udp://tracker.opentrackr.org:1337/announce
  • udp://exodus.desync.com:6969/announce
  • udp://9.rarbg.me:2970/announce
  • udp://tracker.opentrackr.org:1337/announce
  • udp://tracker.tiny-vps.com:6969/announce
  • udp://tracker.internetwarriors.net:1337/announce
  • udp://opentor.org:2710/announce
  • udp://tracker.torrent.eu.org:451/announce
  • udp://explodie.org:6969/announce
  • udp://tracker.moeking.me:6969/announce
  • udp://tracker.cyberia.is:6969/announce
  • udp://9.rarbg.me:2980/announce
  • udp://9.rarbg.to:2940/announce
  • udp://tracker.uw0.xyz:6969/announce
  • udp://tracker.openbittorrent.com:1337/announce