Main.Atal.Hoon.2024.Hindi.1080p.ZEE5.WEB-DL.DD+5.1.Atmos.H.265-Th...

  • Category Movies
  • Type HEVC/x265
  • Language Hindi
  • Total size 1.6 GB
  • Uploaded By xCLuMsYx
  • Downloads 11572
  • Last checked 1 month ago
  • Date uploaded 1 month ago
  • Seeders 185
  • Leechers 25

Main Atal Hoon

Drama

A biopic of former prime minister Atal Bihari Vajpayee, who was the 10th Prime Minister of India and held the post for three times while serving the country. He was awarded Bharat Ratna and Padma Vishnu, and he was the statesman of the BJP.

Infohash : 9BB37A3AFA29F37F55E7B38F5AB69B5949DAC221

Warning! Use a V𝙿N When Downloading Torrents!
Your IP Address is . Location
Your Internet Provider can see when you download torrents! Hide your IP Address with a V𝙿N
1337x recommends using Trust.Zone V𝙿N to hide your torrenting. It's FREE HIDE ME NOW


==============================================================

==============================================================
Main.Atal.Hoon.2024.Hindi.1080p.ZEE5.WEB-DL.DD+5.1.Atmos.H.265-TheBiscuitMan
==============================================================
IMDB | TMDB | MOVIE TRAILER
==============================================================
Video: HEVC | 1920x1080 25fps | 1302 kb/s
Audio: Hindi | E-AC-3 JOC | Enhanced AC-3 with Joint Object Coding | 448 kb/s | DD+5.1 Atmos | 6 channels
Subtitle: English | Hindi
Size: 1.64 GiB | Duration: 2h 13min
==============================================================
Posted by: xCLuMsYx | Date: 14/03/2024
==============================================================



More Poster's



Code:

General
Unique ID : 218663919072973731693132738823167878769 (0xA481239239AC15316698A05864672671)
Complete name : Main.Atal.Hoon.2024.Hindi.1080p.ZEE5.WEB-DL.DD+5.1.Atmos.H.265-TheBiscuitMan.mkv
Format : Matroska
Format version : Version 4
File size : 1.64 GiB
Duration : 2 h 13 min
Overall bit rate : 1 752 kb/s
Frame rate : 25.000 FPS
Writing application : mkvmerge v83.0 ('Circle Of Friends') 64-bit
Writing library : libebml v1.4.5 + libmatroska v1.7.1

Video
ID : 1
Format : HEVC
Format/Info : High Efficiency Video Coding
Format profile : Main [email protected]@Main
Codec ID : V_MPEGH/ISO/HEVC
Duration : 2 h 13 min
Bit rate : 1 302 kb/s
Width : 1 920 pixels
Height : 1 080 pixels
Display aspect ratio : 16:9
Frame rate mode : Constant
Frame rate : 25.000 FPS
Color space : YUV
Chroma subsampling : 4:2:0
Bit depth : 10 bits
Bits/(Pixel*Frame) : 0.025
Time code of first frame : 00:00:00:00
Stream size : 1.22 GiB (74%)
Default : Yes
Forced : No
Color range : Limited
Color primaries : BT.709
Transfer characteristics : BT.709
Matrix coefficients : BT.709

Audio
ID : 2
Format : E-AC-3 JOC
Format/Info : Enhanced AC-3 with Joint Object Coding
Commercial name : Dolby Digital Plus with Dolby Atmos
Codec ID : A_EAC3
Duration : 2 h 13 min
Bit rate mode : Constant
Bit rate : 448 kb/s
Channel(s) : 6 channels
Channel layout : L R C LFE Ls Rs
Sampling rate : 48.0 kHz
Frame rate : 31.250 FPS (1536 SPF)
Compression mode : Lossy
Stream size : 429 MiB (26%)
Language : Hindi
Service kind : Complete Main
Default : Yes
Forced : No
Complexity index : 16
Number of dynamic objects : 15
Bed channel count : 1 channel
Bed channel configuration : LFE

Text #1
ID : 3
Format : UTF-8
Codec ID : S_TEXT/UTF8
Codec ID/Info : UTF-8 Plain Text
Duration : 2 h 4 min
Bit rate : 62 b/s
Frame rate : 0.234 FPS
Count of elements : 1742
Stream size : 56.5 KiB (0%)
Language : English
Default : Yes
Forced : No

Text #2
ID : 4
Format : UTF-8
Codec ID : S_TEXT/UTF8
Codec ID/Info : UTF-8 Plain Text
Duration : 2 h 7 min
Bit rate : 155 b/s
Frame rate : 0.318 FPS
Count of elements : 2437
Stream size : 145 KiB (0%)
Language : Hindi
Default : No
Forced : No












Files:

  • Main.Atal.Hoon.2024.Hindi.1080p.ZEE5.WEB-DL.DD+5.1.Atmos.H.265-TheBiscuitMan.mkv (1.6 GB)

There are currently no comments. Feel free to leave one :)

Code:

  • udp://tracker.opentrackr.org:1337/announce
  • udp://opentracker.i2p.rocks:6969/announce
  • https://opentracker.i2p.rocks:443/announce
  • udp://tracker.openbittorrent.com:6969/announce
  • http://tracker.openbittorrent.com:80/announce
  • udp://open.demonii.com:1337/announce
  • udp://exodus.desync.com:6969/announce
  • udp://open.stealth.si:80/announce
  • udp://tracker.torrent.eu.org:451/announce
  • udp://tracker.moeking.me:6969/announce
  • udp://tracker.bitsearch.to:1337/announce
  • udp://explodie.org:6969/announce
  • udp://tracker1.bt.moack.co.kr:80/announce
  • udp://tracker.tiny-vps.com:6969/announce
  • udp://tracker.altrosky.nl:6969/announce
  • udp://p4p.arenabg.com:1337/announce
  • udp://movies.zsw.ca:6969/announce
  • https://tracker.tamersunion.org:443/announce
  • https://tracker.moeblog.cn:443/announce
  • udp://tracker.theoks.net:6969/announce
  • http://tracker.files.fm:6969/announce
  • udp://fe.dealclub.de:6969/announce
  • http://tracker.bt4g.com:2095/announce
  • https://tracker.loligirl.cn:443/announce
  • udp://tracker.filemail.com:6969/announce
  • http://tracker.mywaifu.best:6969/announce
  • http://open.acgnxtracker.com:80/announce