Hanuman (2024) Hindi 1080p x265 WEBRip DD 5.1 ESub

  • Category Movies
  • Type Bollywood
  • Language Hindi
  • Total size 2.7 GB
  • Uploaded By krishh1337
  • Downloads 10522
  • Last checked 4 weeks ago
  • Date uploaded 1 month ago
  • Seeders 326
  • Leechers 146

Hanu-Man

FantasyActionComedyScience Fiction

An imaginary place called Anjanadri where the protagonist gets the powers of Hanuman and fights for Anjanadri.

Infohash : A18E0A69D65E302797764F5A63203ABD519D8011

Warning! Use a V𝙿N When Downloading Torrents!
Your IP Address is . Location
Your Internet Provider can see when you download torrents! Hide your IP Address with a V𝙿N
1337x recommends using Trust.Zone V𝙿N to hide your torrenting. It's FREE HIDE ME NOW



Video
ID : 1
Format : HEVC
Format/Info : High Efficiency Video Coding
Format profile : Main [email protected]@High
Codec ID : V_MPEGH/ISO/HEVC
Duration : 2 h 38 min
Bit rate : 2 017 kb/s
Width : 1 920 pixels
Height : 806 pixels
Display aspect ratio : 2.39:1
Frame rate mode : Constant
Frame rate : 29.970 (30000/1001) FPS
Color space : YUV
Chroma subsampling : 4:2:0 (Type 2)
Bit depth : 10 bits

Audio
ID : 2
Format : AC-3
Format/Info : Audio Coding 3
Commercial name : Dolby Digital
Codec ID : A_AC3
Duration : 2 h 38 min
Bit rate mode : Constant
Bit rate : 384 kb/s
Channel(s) : 6 channels
Channel layout : L R C LFE Ls Rs
Sampling rate : 48.0 kHz
Frame rate : 31.250 FPS (1536 SPF)
Compression mode : Lossy
Stream size : 435 MiB (16%)
Language : Hindi

Text
ID : 3
Format : UTF-8
Codec ID : S_TEXT/UTF8
Codec ID/Info : UTF-8 Plain Text
Duration : 2 h 35 min
Bit rate : 47 b/s
Frame rate : 0.190 FPS
Count of elements : 1768
Stream size : 54.0 KiB (0%)
Language : English

Files:

  • Hanuman (2024) Hindi 1080p x265 WEBRip DD 5.1 ESub.mkv (2.7 GB)

There are currently no comments. Feel free to leave one :)

Code:

  • udp://tracker.opentrackr.org:1337/announce
  • udp://open.tracker.cl:1337/announce
  • udp://tracker.auctor.tv:6969/announce
  • udp://opentracker.i2p.rocks:6969/announce
  • udp://open.demonii.com:1337/announce
  • udp://open.stealth.si:80/announce
  • udp://tracker.torrent.eu.org:451/announce
  • udp://tracker.moeking.me:6969/announce
  • udp://explodie.org:6969/announce
  • https://tracker.tamersunion.org:443/announce
  • https://tracker.gbitt.info:443/announce
  • http://tracker.gbitt.info:80/announce
  • udp://tracker-udp.gbitt.info:80/announce
  • udp://tracker.tiny-vps.com:6969/announce
  • udp://tracker.theoks.net:6969/announce
  • udp://tracker.skyts.net:6969/announce
  • udp://tracker.dump.cl:6969/announce
  • udp://tracker.bittor.pw:1337/announce
  • https://tracker.bt4g.com:443/announce