Teri.Baaton.Mein.Aisa.Uljha.Jiya.2024.Hindi.1080p.AMZN.WEB-DL.DD+...

  • Category Movies
  • Type HEVC/x265
  • Language Hindi
  • Total size 4.3 GB
  • Uploaded By xCLuMsYx
  • Downloads 9016
  • Last checked 3 weeks ago
  • Date uploaded 1 month ago
  • Seeders 175
  • Leechers 48

Teri Baaton Mein Aisa Uljha Jiya

RomanceComedyScience Fiction

Aryan meets a perfect girl, Sifra, during an official assignment in the US and falls in love with her only to discover later that it's an impossible love story.

Infohash : 21A013E9590788B50338832D567C1917F895450E

Warning! Use a V𝙿N When Downloading Torrents!
Your IP Address is . Location
Your Internet Provider can see when you download torrents! Hide your IP Address with a V𝙿N
1337x recommends using Trust.Zone V𝙿N to hide your torrenting. It's FREE HIDE ME NOW


==============================================================

==============================================================
Teri.Baaton.Mein.Aisa.Uljha.Jiya.2024.Hindi.1080p.AMZN.WEB-DL.DD+5.1.H.265-TheBiscuitMan
==============================================================
IMDB | TMDB | MOVIE TRAILER
==============================================================
Video: HEVC | 1920x800 24fps | 3 749 kb/s
Audio: Hindi | E-AC-3 | Enhanced AC-3 | 640 kb/s | DD+5.1 | 6 channels
Subtitle: Arabic (SA) | [SDH] Arabic (SA) | Burmese (MM) | [SDH] Burmese (MM) | English (US) | [SDH] English (US) | French (FR) | [SDH] French (FR) | Italian (IT) | [SDH] Italian (IT) | Malay (BN) | [SDH] Malay (BN) | Malay (MY) | [SDH] Malay (MY) | Polish (PL) | [SDH] Polish (PL) | Russian (RU) | [SDH] Russian (RU) | Thai (TH) | [SDH] Thai (TH)
Size: 4.32 GiB | Duration: 2h 20min
==============================================================
Posted by: xCLuMsYx | Date: 22/03/2024
==============================================================



More Poster's



Code:

General
Unique ID : 233538963874514382894626300037423195259 (0xAFB1F7E724903568B575BB05A964647B)
Complete name : Teri.Baaton.Mein.Aisa.Uljha.Jiya.2024.Hindi.1080p.AMZN.WEB-DL.DD+5.1.H.265-TheBiscuitMan.mkv
Format : Matroska
Format version : Version 4
File size : 4.32 GiB
Duration : 2 h 20 min
Overall bit rate : 4 395 kb/s
Frame rate : 24.000 FPS
Writing application : mkvmerge v83.0 ('Circle Of Friends') 64-bit
Writing library : libebml v1.4.5 + libmatroska v1.7.1

Video
ID : 1
Format : HEVC
Format/Info : High Efficiency Video Coding
Format profile : Main@L4@Main
Codec ID : V_MPEGH/ISO/HEVC
Duration : 2 h 20 min
Bit rate : 3 749 kb/s
Width : 1 920 pixels
Height : 800 pixels
Display aspect ratio : 2.40:1
Frame rate mode : Constant
Frame rate : 24.000 FPS
Standard : NTSC
Color space : YUV
Chroma subsampling : 4:2:0
Bit depth : 8 bits
Bits/(Pixel*Frame) : 0.102
Stream size : 3.69 GiB (85%)
Writing library : x265 2.9_elemental+1-9e0607aa5b6f:[Linux][GCC 4.8.5][64 bit] 8bit+10bit+12bit
Encoding settings : cpuid=1111039 / frame-threads=1 / wpp / no-pmode / no-pme / psnr / ssim / log-level=2 / csv / csv-log-level=2 / input-csp=1 / input-res=1920x800 / interlace=0 / total-frames=0 / level-idc=40 / high-tier=1 / uhd-bd=0 / ref=5 / no-allow-non-conformance / repeat-headers / annexb / no-aud / no-hrd / info / hash=0 / no-temporal-layers / no-open-gop / min-keyint=61 / keyint=120 / gop-lookahead=0 / bframes=5 / b-adapt=2 / b-pyramid / bframe-bias=0 / rc-lookahead=120 / lookahead-slices=0 / scenecut=0 / radl=0 / no-intra-refresh / ctu=64 / min-cu-size=8 / rect / no-amp / max-tu-size=32 / tu-inter-depth=1 / tu-intra-depth=1 / limit-tu=0 / rdoq-level=2 / dynamic-rd=0.00 / no-ssim-rd / signhide / no-tskip / nr-intra=0 / nr-inter=200 / no-constrained-intra / strong-intra-smoothing / max-merge=3 / limit-refs=3 / limit-modes / me=3 / subme=3 / merange=57 / temporal-mvp / weightp / no-weightb / no-analyze-src-pics / deblock=0:0 / sao / no-sao-non-deblock / rd=4 / no-early-skip / rskip / no-fast-intra / no-tskip-fast / no-cu-lossless / no-b-intra / no-splitrd-skip / rdpenalty=0 / psy-rd=2.00 / psy-rdoq=1.00 / no-rd-refine / no-lossless / cbqpoffs=0 / crqpoffs=0 / rc=crf / crf=21.5 / qcomp=0.60 / qpstep=4 / stats-write=0 / stats-read=0 / vbv-maxrate=9000 / vbv-bufsize=12000 / vbv-init=0.9 / crf-max=0.0 / crf-min=0.0 / ipratio=1.40 / pbratio=1.30 / aq-mode=3 / aq-strength=2.00 / cutree / zone-count=0 / no-strict-cbr / qg-size=32 / no-rc-grain / qpmax=69 / qpmin=0 / no-const-vbv / sar=1 / overscan=0 / videoformat=2 / range=0 / colorprim=1 / transfer=1 / colormatrix=1 / chromaloc=0 / display-window=0 / max-cll=0,0 / min-luma=0 / max-luma=255 / log2-max-poc-lsb=8 / vui-timing-info / vui-hrd-info / slices=1 / no-opt-qp-pps / no-opt-ref-list-length-pps / no-multi-pass-opt-rps / scenecut-bias=0.05 / no-opt-cu-delta-qp / no-aq-motion / no-hdr / no-hdr-opt / no-dhdr10-opt / no-idr-recovery-sei / analysis-reuse-level=5 / scale-factor=0 / refine-intra=0 / refine-inter=0 / refine-mv=0 / no-limit-sao / ctu-info=0 / no-lowpass-dct / refine-mv-type=0 / copy-pic=1 / max-ausize-factor=1.0 / no-dynamic-refine / no-single-sei
Default : Yes
Forced : No
Color range : Limited
Color primaries : BT.709
Transfer characteristics : BT.709
Matrix coefficients : BT.709

Audio
ID : 2
Format : E-AC-3
Format/Info : Enhanced AC-3
Commercial name : Dolby Digital Plus
Codec ID : A_EAC3
Duration : 2 h 20 min
Bit rate mode : Constant
Bit rate : 640 kb/s
Channel(s) : 6 channels
Channel layout : L R C LFE Ls Rs
Sampling rate : 48.0 kHz
Frame rate : 31.250 FPS (1536 SPF)
Compression mode : Lossy
Stream size : 645 MiB (15%)
Language : Hindi
Service kind : Complete Main
Default : Yes
Forced : No

Text #1
ID : 3
Format : UTF-8
Codec ID : S_TEXT/UTF8
Codec ID/Info : UTF-8 Plain Text
Duration : 2 h 14 min
Bit rate : 124 b/s
Frame rate : 0.331 FPS
Count of elements : 2672
Stream size : 123 KiB (0%)
Language : Arabic (SA)
Default : No
Forced : No

Text #2
ID : 4
Format : UTF-8
Codec ID : S_TEXT/UTF8
Codec ID/Info : UTF-8 Plain Text
Duration : 2 h 14 min
Bit rate : 125 b/s
Frame rate : 0.331 FPS
Count of elements : 2672
Stream size : 123 KiB (0%)
Title : [SDH]
Language : Arabic (SA)
Default : No
Forced : No

Text #3
ID : 5
Format : UTF-8
Codec ID : S_TEXT/UTF8
Codec ID/Info : UTF-8 Plain Text
Duration : 2 h 14 min
Bit rate : 203 b/s
Frame rate : 0.330 FPS
Count of elements : 2666
Stream size : 200 KiB (0%)
Language : Burmese (MM)
Default : No
Forced : No

Text #4
ID : 6
Format : UTF-8
Codec ID : S_TEXT/UTF8
Codec ID/Info : UTF-8 Plain Text
Duration : 2 h 14 min
Bit rate : 203 b/s
Frame rate : 0.331 FPS
Count of elements : 2672
Stream size : 201 KiB (0%)
Title : [SDH]
Language : Burmese (MM)
Default : No
Forced : No

Text #5
ID : 7
Format : UTF-8
Codec ID : S_TEXT/UTF8
Codec ID/Info : UTF-8 Plain Text
Duration : 2 h 14 min
Bit rate : 78 b/s
Frame rate : 0.330 FPS
Count of elements : 2666
Stream size : 77.8 KiB (0%)
Language : English (US)
Default : No
Forced : No

Text #6
ID : 8
Format : UTF-8
Codec ID : S_TEXT/UTF8
Codec ID/Info : UTF-8 Plain Text
Duration : 2 h 14 min
Bit rate : 79 b/s
Frame rate : 0.331 FPS
Count of elements : 2672
Stream size : 78.4 KiB (0%)
Title : [SDH]
Language : English (US)
Default : Yes
Forced : No

Text #7
ID : 9
Format : UTF-8
Codec ID : S_TEXT/UTF8
Codec ID/Info : UTF-8 Plain Text
Duration : 2 h 14 min
Bit rate : 90 b/s
Frame rate : 0.330 FPS
Count of elements : 2666
Stream size : 88.9 KiB (0%)
Language : French (FR)
Default : No
Forced : No

Text #8
ID : 10
Format : UTF-8
Codec ID : S_TEXT/UTF8
Codec ID/Info : UTF-8 Plain Text
Duration : 2 h 14 min
Bit rate : 90 b/s
Frame rate : 0.331 FPS
Count of elements : 2672
Stream size : 89.2 KiB (0%)
Title : [SDH]
Language : French (FR)
Default : No
Forced : No

Text #9
ID : 11
Format : UTF-8
Codec ID : S_TEXT/UTF8
Codec ID/Info : UTF-8 Plain Text
Duration : 2 h 14 min
Bit rate : 82 b/s
Frame rate : 0.330 FPS
Count of elements : 2666
Stream size : 81.6 KiB (0%)
Language : Italian (IT)
Default : No
Forced : No

Text #10
ID : 12
Format : UTF-8
Codec ID : S_TEXT/UTF8
Codec ID/Info : UTF-8 Plain Text
Duration : 2 h 14 min
Bit rate : 83 b/s
Frame rate : 0.331 FPS
Count of elements : 2672
Stream size : 82.2 KiB (0%)
Title : [SDH]
Language : Italian (IT)
Default : No
Forced : No

Text #11
ID : 13
Format : UTF-8
Codec ID : S_TEXT/UTF8
Codec ID/Info : UTF-8 Plain Text
Duration : 2 h 14 min
Bit rate : 79 b/s
Frame rate : 0.330 FPS
Count of elements : 2666
Stream size : 78.4 KiB (0%)
Language : Malay (BN)
Default : No
Forced : No

Text #12
ID : 14
Format : UTF-8
Codec ID : S_TEXT/UTF8
Codec ID/Info : UTF-8 Plain Text
Duration : 2 h 14 min
Bit rate : 80 b/s
Frame rate : 0.331 FPS
Count of elements : 2672
Stream size : 79.0 KiB (0%)
Title : [SDH]
Language : Malay (BN)
Default : No
Forced : No

Text #13
ID : 15
Format : UTF-8
Codec ID : S_TEXT/UTF8
Codec ID/Info : UTF-8 Plain Text
Duration : 2 h 14 min
Bit rate : 88 b/s
Frame rate : 0.330 FPS
Count of elements : 2666
Stream size : 87.0 KiB (0%)
Language : Malay (MY)
Default : No
Forced : No

Text #14
ID : 16
Format : UTF-8
Codec ID : S_TEXT/UTF8
Codec ID/Info : UTF-8 Plain Text
Duration : 2 h 14 min
Bit rate : 88 b/s
Frame rate : 0.331 FPS
Count of elements : 2672
Stream size : 87.6 KiB (0%)
Title : [SDH]
Language : Malay (MY)
Default : No
Forced : No

Text #15
ID : 17
Format : UTF-8
Codec ID : S_TEXT/UTF8
Codec ID/Info : UTF-8 Plain Text
Duration : 2 h 14 min
Bit rate : 85 b/s
Frame rate : 0.330 FPS
Count of elements : 2666
Stream size : 84.3 KiB (0%)
Language : Polish (PL)
Default : No
Forced : No

Text #16
ID : 18
Format : UTF-8
Codec ID : S_TEXT/UTF8
Codec ID/Info : UTF-8 Plain Text
Duration : 2 h 14 min
Bit rate : 85 b/s
Frame rate : 0.331 FPS
Count of elements : 2672
Stream size : 84.4 KiB (0%)
Title : [SDH]
Language : Polish (PL)
Default : No
Forced : No

Text #17
ID : 19
Format : UTF-8
Codec ID : S_TEXT/UTF8
Codec ID/Info : UTF-8 Plain Text
Duration : 2 h 14 min
Bit rate : 140 b/s
Frame rate : 0.330 FPS
Count of elements : 2666
Stream size : 138 KiB (0%)
Language : Russian (RU)
Default : No
Forced : No

Text #18
ID : 20
Format : UTF-8
Codec ID : S_TEXT/UTF8
Codec ID/Info : UTF-8 Plain Text
Duration : 2 h 14 min
Bit rate : 140 b/s
Frame rate : 0.331 FPS
Count of elements : 2672
Stream size : 139 KiB (0%)
Title : [SDH]
Language : Russian (RU)
Default : No
Forced : No

Text #19
ID : 21
Format : UTF-8
Codec ID : S_TEXT/UTF8
Codec ID/Info : UTF-8 Plain Text
Duration : 2 h 14 min
Bit rate : 197 b/s
Frame rate : 0.330 FPS
Count of elements : 2666
Stream size : 194 KiB (0%)
Language : Thai (TH)
Default : No
Forced : No

Text #20
ID : 22
Format : UTF-8
Codec ID : S_TEXT/UTF8
Codec ID/Info : UTF-8 Plain Text
Duration : 2 h 14 min
Bit rate : 198 b/s
Frame rate : 0.331 FPS
Count of elements : 2672
Stream size : 195 KiB (0%)
Title : [SDH]
Language : Thai (TH)
Default : No
Forced : No












Files:

  • Teri.Baaton.Mein.Aisa.Uljha.Jiya.2024.Hindi.1080p.AMZN.WEB-DL.DD+5.1.H.265-TheBiscuitMan.mkv (4.3 GB)

There are currently no comments. Feel free to leave one :)

Code:

  • udp://tracker.opentrackr.org:1337/announce
  • udp://opentracker.i2p.rocks:6969/announce
  • https://opentracker.i2p.rocks:443/announce
  • udp://tracker.openbittorrent.com:6969/announce
  • http://tracker.openbittorrent.com:80/announce
  • udp://open.demonii.com:1337/announce
  • udp://exodus.desync.com:6969/announce
  • udp://open.stealth.si:80/announce
  • udp://tracker.torrent.eu.org:451/announce
  • udp://tracker.moeking.me:6969/announce
  • udp://tracker.bitsearch.to:1337/announce
  • udp://explodie.org:6969/announce
  • udp://tracker1.bt.moack.co.kr:80/announce
  • udp://tracker.tiny-vps.com:6969/announce
  • udp://tracker.altrosky.nl:6969/announce
  • udp://p4p.arenabg.com:1337/announce
  • udp://movies.zsw.ca:6969/announce
  • https://tracker.tamersunion.org:443/announce
  • https://tracker.moeblog.cn:443/announce
  • udp://tracker.theoks.net:6969/announce
  • http://tracker.files.fm:6969/announce
  • udp://fe.dealclub.de:6969/announce
  • http://tracker.bt4g.com:2095/announce
  • https://tracker.loligirl.cn:443/announce
  • udp://tracker.filemail.com:6969/announce
  • http://tracker.mywaifu.best:6969/announce
  • http://open.acgnxtracker.com:80/announce