Shogun S01E07 1080p WEBDL [ProtonMovies]

  • Category TV
  • Type HEVC/x265
  • Language English
  • Total size 1.4 GB
  • Uploaded By ProtonMovies
  • Downloads 1119
  • Last checked 2 weeks ago
  • Date uploaded 3 weeks ago
  • Seeders 86
  • Leechers 1

Infohash : 454B6D3A6639429D56D396822AB77457202E650E

Warning! Use a V𝙿N When Downloading Torrents!
Your IP Address is . Location
Your Internet Provider can see when you download torrents! Hide your IP Address with a V𝙿N
1337x recommends using Trust.Zone V𝙿N to hide your torrenting. It's FREE HIDE ME NOW


Shôgun Season 1 Episode 7 1080p WEBDL


Info -
IMDB - https://www.imdb.com/title/tt2788316/

Plot -
When a mysterious European ship is found marooned in a nearby fishing village, Lord Yoshii Toranaga discovers secrets that could tip the scales of power and devastate his enemies.


Language :-
Episode 7  - English


Screenshots :-

[


File Info :

Quote:


General
Complete name            : Shōgun_S01E07
Format                   : Matroska
Format version           : Version 4
File size                : 1.44 GiB
Duration                 : 55 min 0 s
Overall bit rate         : 3 747 kb/s
Frame rate               : 24.000 FPS
Movie name               : A Stick of Time
Description              : Outplayed by new alliances in Osaka, Toranaga is forced to carve out a new deal with a long lost family member.
Writing application      : Lavf60.3.100
Writing library          : Lavf60.3.100
Cover                    : Yes
ErrorDetectionType       : Per level 1
Attachments              : cover.png
ARTIST                   : Hiroyuki Sanada, Cosmo Jarvis, Anna Sawai, Tadanobu Asano, Hiroto Kanai
DATE                     : 2024
EPISODE_ID               : 7
SEASON_NUMBER            : 1
SHOW                     : Shōgun

Video
ID                       : 1
Format                   : HEVC
Format/Info              : High Efficiency Video Coding
Format profile           : Main 10@L4@Main
Codec ID                 : V_MPEGH/ISO/HEVC
Duration                 : 55 min 0 s
Bit rate                 : 3417 kb/s
Width                    : 1920 pixels
Height                   : 1080 pixels
Display aspect ratio     : 16:9
Frame rate mode          : Constant
Frame rate               : 24.000 FPS
Color space              : YUV
Chroma subsampling       : 4:2:0
Bit depth                : 10 bits
Bits/(Pixel*Frame)       : 0.069
Stream size              : 1.31 GiB (91%)
Default                  : Yes
Forced                   : No
Color range              : Limited
VENDOR_ID                : [0][0][0][0]

Audio
ID                       : 2
Format                   : E-AC-3
Format/Info              : Enhanced AC-3
Commercial name          : Dolby Digital Plus
Codec ID                 : A_EAC3
Duration                 : 55 min 0 s
Bit rate mode            : Constant
Bit rate                 : 256 kb/s
Channel(s)               : 6 channels
Channel layout           : L R C LFE Ls Rs
Sampling rate            : 48.0 kHz
Frame rate               : 31.250 FPS (1536 SPF)
Bit depth                : 32 bits
Compression mode         : Lossy
Stream size              : 101 MiB (7%)
Title                    : English
Language                 : English
Service kind             : Complete Main
Default                  : Yes
Forced                   : No
VENDOR_ID                : [0][0][0][0]

Text
ID                       : 3
Format                   : UTF-8
Codec ID                 : S_TEXT/UTF8
Codec ID/Info            : UTF-8 Plain Text
Duration                 : 54 min 58 s
Title                    : English
Writing library          : Lavc60.3.100 srt
Language                 : English
Default                  : Yes
Forced                   : No



Files:

  • Shōgun S01E07.mkv (1.4 GB)

There are currently no comments. Feel free to leave one :)

Code:

  • udp://tracker.opentrackr.org:1337/announce
  • udp://tracker.auctor.tv:6969/announce
  • udp://opentracker.i2p.rocks:6969/announce
  • https://opentracker.i2p.rocks:443/announce
  • udp://open.demonii.com:1337/announce