Murder Mubarak (2024) Hindi 720p WEB-HDRip x264 HE-AAC 5.1 Esubs

  • Category Movies
  • Type Bollywood
  • Language Hindi
  • Total size 1.3 GB
  • Uploaded By DESIRE123
  • Downloads 31264
  • Last checked 1 month ago
  • Date uploaded 1 month ago
  • Seeders 728
  • Leechers 87

Murder Mubarak

ComedyCrimeThriller

When a gym trainer is murdered at an elite Delhi club, a wily investigator unravels the sordid secrets of its ultrarich members to find the killer.

Infohash : 024AF4AB4FC95F4D66FB34851F5BA1C411CA38B9

Warning! Use a V𝙿N When Downloading Torrents!
Your IP Address is . Location
Your Internet Provider can see when you download torrents! Hide your IP Address with a V𝙿N
1337x recommends using Trust.Zone V𝙿N to hide your torrenting. It's FREE HIDE ME NOW


Murder Mubarak (2024) Hindi 720p WEB-HDRip x264 HE-AAC 5.1 Esubs


This Movie Encoded by DesireMoVies.Boo


POSTER



INFO


General
Format                      : Matroska
Format version              : Version 4
File size                   : 1.28 GiB
Duration                    : 2 h 21 min
Overall bit rate            : 1 295 kb/s
Frame rate                  : 24.000 FPS

Video
ID                          : 1
Format                      : AVC
Format/Info                 : Advanced Video Codec
Format profile              : High@L4
Format settings             : CABAC / 4 Ref Frames
Format settings, CABAC      : Yes
Format settings, Reference  : 4 frames
Codec ID                    : V_MPEG4/ISO/AVC
Duration                    : 2 h 21 min
Bit rate                    : 1 100 kb/s
Width                       : 1 280 pixels
Height                      : 720 pixels
Display aspect ratio        : 16:9
Frame rate mode             : Constant
Frame rate                  : 24.000 FPS
Color space                 : YUV
Chroma subsampling          : 4:2:0
Bit depth                   : 8 bits
Scan type                   : Progressive
Bits/(Pixel*Frame)          : 0.050
Stream size                 : 1.09 GiB (85%)
Default                     : Yes
Forced                      : No
Color range                 : Limited
Color primaries             : BT.709
Transfer characteristics    : BT.709
Matrix coefficients         : BT.709

Audio
ID                          : 2
Format                      : AAC LC SBR
Format/Info                 : Advanced Audio Codec Low Complexity with Spectral Band Replication
Commercial name             : HE-AAC
Format settings             : NBC
Codec ID                    : A_AAC-5
Duration                    : 2 h 21 min
Bit rate                    : 192 kb/s
Channel(s)                  : 6 channels
Channel layout              : C L R Ls Rs LFE
Sampling rate               : 48.0 kHz
Frame rate                  : 23.438 FPS (2048 SPF)
Compression mode            : Lossy
Delay relative to video     : -105 ms
Stream size                 : 195 MiB (15%)
Title                       : DesireMoVies.Boo
Language                    : Hindi
Default                     : Yes
Forced                      : No

Text #1
ID                          : 3
Format                      : ASS
Codec ID                    : S_TEXT/ASS
Codec ID/Info               : Advanced Sub Station Alpha
Duration                    : 1 h 59 min
Bit rate                    : 1 b/s
Frame rate                  : 0.003 FPS
Count of elements           : 18
Compression mode            : Lossless
Stream size                 : 1 006 Bytes (0%)
Title                       : DesireMoVies.Boo
Language                    : Hindi
Default                     : No
Forced                      : No


SCREENSHOT



Keep Visit DesireMoVies.Monster For More Exusive MoVies


Files:

Murder Mubarak (2024) Hindi 720p WEB-HDRip x264 HE-AAC 5.1 Esubs
  • Murder Mubarak (2024).720p.HD.mkv (1.3 GB)

Comments

Code:

  • udp://tracker.opentrackr.org:1337/announce
  • udp://zer0day.to:1337/announce
  • udp://tracker.coppersurfer.tk:6969/announce
  • udp://tracker.coppersurfer.tk:80/announce
  • udp://p4p.arenabg.com:1337/announce
  • udp://p4p.arenabg.ch:1337/announce
  • udp://tracker.internetwarriors.net:1337/announce
  • udp://9.rarbg.to:2710/announce
  • udp://9.rarbg.me:2710/announce
  • udp://9.rarbg.com:2710/announce
  • udp://9.rarbg.me:2730/announce
  • udp://eddie4.nl:6969/announce
  • udp://tracker.leechers-paradise.org:6969/announce
  • udp://tracker.ilibr.org:80/announce
  • udp://tracker.ilibr.org:6969/announce