Godzilla x Kong: The New Empire 2024 [1080p x264 HDTS 2GB English...

  • Category Movies
  • Type HD
  • Language English
  • Total size 1.7 GB
  • Uploaded By TechQHD
  • Downloads 34248
  • Last checked 2 weeks ago
  • Date uploaded 3 weeks ago
  • Seeders 1076
  • Leechers 143

Godzilla x Kong: The New Empire

ActionScience FictionAdventure

Following their explosive showdown, Godzilla and Kong must reunite against a colossal undiscovered threat hidden within our world, challenging their very existence – and our own.

Infohash : F73D883C8224B8493503D181E442CD4F10CD44C5

Warning! Use a V𝙿N When Downloading Torrents!
Your IP Address is . Location
Your Internet Provider can see when you download torrents! Hide your IP Address with a V𝙿N
1337x recommends using Trust.Zone V𝙿N to hide your torrenting. It's FREE HIDE ME NOW



EDIT : DOWNLOAD MY HQ-HDTS IT IS WAY HIGHER QUALITY AND NO BLURRING OF ADS



Movie name :
Godzilla x Kong: The New Empire 2024 [1080p x264 HDTS 2GB English Blurred ADS] - Vanga[NucleyaHD]

Note :
(ADS were blurred by adding a black thick line which is noticeable but since it is free don’t mind)(May include the blur sometimes going offset please donot mind and add extra comments)(screenshots are takenbefore rendering, may be higher quality)

Tags :
Vanga, HDTS, Leaked, Action, Fantasy, HDCAM, 1080p


Quote:


Storyline : Godzilla and the almighty Kong face a colossal threat hidden deep within the planet, challenging their very existence and the survival of the human race.


Director : Adam Wingard


Stars :  Kaylee Hottie, Dan Stevens


Release date : 29 March 2024 (This was uploaded b4 release)

File size : 2GB

Encoded by : Uploader & LatinRandom Website







Quote:


Video Format : MP4

Video Resolution : 1920x804

Video Codec. : x264/HEVC

Frame Rate : 24fps

Video Size : 2 GB

Video Bitrate : 2100KBPS

Audio Language : English

Audio Format : Advanced Audio Codec Low Complexity

Audio Bitrate : 2.0 128KBP/s

Subtitle : English











Quote:

MEDIAINFO :
Format                      : MPEG-4
Format profile              : Base Media / Version 2
Codec ID                    : mp42 (mp42/mp41)
File size                   : 1.70 GiB
Duration                    : 1 h 44 min
Overall bit rate mode       : Variable
Overall bit rate            : 2 320 kb/s
Frame rate                  : 24.000 FPS
Encoded date                : 2024-03-28 17:26:40 UTC
Tagged date                 : 2024-03-28 17:27:30 UTC
TIM                         : 00:00:00:00
TSC                         : 24
TSZ                         : 1

Video
ID                          : 1
Format                      : AVC
Format/Info                 : Advanced Video Codec
Format profile              : [email protected]
Format settings             : CABAC / 1 Ref Frames
Format settings, CABAC      : Yes
Format settings, Reference  : 1 frame
Format settings, GOP        : M=1, N=30
Codec ID                    : avc1
Codec ID/Info               : Advanced Video Coding
Duration                    : 1 h 44 min
Bit rate                    : 2 207 kb/s
Width                       : 1 920 pixels
Height                      : 840 pixels
Display aspect ratio        : 2.25:1
Frame rate mode             : Constant
Frame rate                  : 24.000 FPS
Color space                 : YUV
Chroma subsampling          : 4:2:0
Bit depth                   : 8 bits
Scan type                   : Progressive
Bits/(Pixel*Frame)          : 0.057
Stream size                 : 1.62 GiB (95%)
Language                    : English
Encoded date                : 2024-03-28 17:26:40 UTC
Tagged date                 : 2024-03-28 17:26:40 UTC
Codec configuration box     : avcC

Audio
ID                          : 2
Format                      : AAC LC
Format/Info                 : Advanced Audio Codec Low Complexity
Codec ID                    : mp4a-40-2
Duration                    : 1 h 44 min
Source duration             : 1 h 44 min
Bit rate mode               : Variable
Bit rate                    : 109 kb/s
Maximum bit rate            : 176 kb/s
Channel(s)                  : 2 channels
Channel layout              : L R
Sampling rate               : 48.0 kHz
Frame rate                  : 46.875 FPS (1024 SPF)
Compression mode            : Lossy
Stream size                 : 82.1 MiB (5%)
Source stream size          : 82.1 MiB (5%)
Language                    : English
Encoded date                : 2024-03-28 17:26:40 UTC
Tagged date                 : 2024-03-28 17:26:40 UTC


Files:

  • Godzilla x Kong The New Empire 2024 [1080p x264 HDTS 2GB English Blurred ADS] - Vanga.mp4 (1.7 GB)

Comments

Code:

  • udp://tracker.opentrackr.org:1337/announce
  • https://tracker2.ctix.cn:443/announce
  • https://tracker1.520.jp:443/announce
  • udp://opentracker.i2p.rocks:6969/announce
  • udp://open.tracker.cl:1337/announce
  • udp://open.demonii.com:1337/announce
  • udp://tracker.openbittorrent.com:6969/announce
  • http://tracker.openbittorrent.com:80/announce
  • udp://open.stealth.si:80/announce
  • udp://exodus.desync.com:6969/announce
  • udp://tracker.torrent.eu.org:451/announce
  • udp://tracker1.bt.moack.co.kr:80/announce
  • udp://tracker-udp.gbitt.info:80/announce
  • https://tracker.gbitt.info:443/announce
  • http://tracker.gbitt.info:80/announce
  • udp://uploads.gamecoast.net:6969/announce
  • udp://tracker2.dler.org:80/announce
  • udp://tracker.tiny-vps.com:6969/announce
  • udp://tracker.theoks.net:6969/announce
  • udp://tracker.moeking.me:6969/announce